Become a part of the TranceAddict community! Frequently Asked Questions - Please read this if you haven'tSearch the forums
TranceAddict Forums > Local Scene Info / Discussion / EDM Event Listings > Canada > Canada - Toronto & Southern Ont. > Download Thread.
Pages (176): « 1 2 3 4 5 6 7 8 9 10 11 12 13 14 15 16 17 18 19 20 21 22 23 24 25 26 27 28 29 30 31 32 33 34 35 36 37 38 39 40 41 42 43 44 45 46 47 48 49 50 51 52 53 54 55 56 57 58 59 60 61 62 63 64 65 66 67 68 69 70 71 72 73 74 75 76 77 78 79 [80] 81 82 83 84 85 86 87 88 89 90 91 92 93 94 95 96 97 98 99 100 101 102 103 104 105 106 107 108 109 110 111 112 113 114 115 116 117 118 119 120 121 122 123 124 125 126 127 128 129 130 131 132 133 134 135 136 137 138 139 140 141 142 143 144 145 146 147 148 149 150 151 152 153 154 155 156 157 158 159 160 161 162 163 164 165 166 167 168 169 170 171 172 173 174 175 176 »   Last Thread   Next Thread
Author
Thread    Post A Reply
m2j
Music Addict



Registered: Nov 2004
Location: Toronto, Canada

quote:
Originally posted by TranceGrooves
well that certainly is a good option. if everyone can now index their stuff i can ask swamper to close this one and we will bookmark it in version2


you gotta give us some time for that bro.

cuz it involves searching 64 pages to find our posts.
or we could start doing the index thing for the next thread... so we can keep track of them as we go.


___________________
-M2J

For set downloads, event details and radio schedule visit:
http://www.vitalevents.net/

Old Post Mar-05-2006 16:54  Canada
Click Here to See the Profile for m2j Click here to Send m2j a Private Message Visit m2j's homepage! Add m2j to your buddy list Report this Post Reply w/Quote Edit/Delete Message
SeventhSun
Supreme tranceaddict



Registered: Sep 2002
Location: Here

Armin Van Buuren B2B with Ferry Corsten
Live @ Godskitchen, Dublin March 16th, 2003

Armin van Buuren vs. Ferry Corsten - Live @ Godskitchen Dublin (03-16-2003)
01. DJ Cor Fijneman feat. Jan Johnston - Venus (DJ Tiesto Remix)
02. Solarstone - Solarcoaster (Midway Remix)
03. Aly & Fila - Eyes Of Horus (Ronski Speed Remix)
04. Matti Laamanen - Flakes
05. 3 Fingers - Frozen Feburary (Flake mix)
06. Push - Universal Nation (2003 Remix)
07. Armin van Buuren - Sunburn
08. Eon - Pocket Damage
09. Ronald van Gelderen - Proceed
10. Umek - Gatex vs. Speedy J - Kreck (Armin van Buuren Rework)
11. Ferry Corsten - Punk
12. Queen vs. Vanguard - Flash
13. GTR - Mistral
14. Airwave vs. Rising Star - Sunspot (DCML Remix)
15. System F vs. Armin van Buuren - Exhale
http://www.megaupload.com/?d=K899RK10

MICKEY FINN LIVE AT FANTAZIA 1993!!!!!!!!!!!!!!!!!
A rare ol skool treat for al the TOTA junglists.
Great set!
http://www.megaupload.com/?d=FWDMBBPL

Armin Van Buuren Live at Club Eau March 18, 2000
01 Armin van Buuren - Communication Part 2
02 DJ Tiësto - Sparkles (Transa Remix)
03 Push - Till We Meet Again
04 Luis Paris - Incantation (Ferry Corsten Remix)
05 Twilight - Platina (Maurits Paardenkoper Remix)
06 S.O. Project - Direct Dizko
07 Bismark - Reactivate
08 Kiko - World Cup
09 Major league - Wonder
10 Taskforce - Touch Me
11 Insigma - Insigma (club mix)
12 Humate - Love Stimulation (Remix)
13 Savon - Children Of Paradise (A.J.Powell Mix)
http://www.megaupload.com/?d=XCN3DZEJ
This set is one of my favorites. Enjoy.

Marco V Live At Sensation White Amsterdam Arena 05-07-2003
Broadcasted Live On ID&T Radio
01. Sensation Intro
02. Fractal Vibe - C-Song (Dynamic Vibe Remix)
03. Ernesto vs Bastian - Who's Is The Starter
04. Dj Tiesto - Traffic
05. Albert vorne - Indigo sky (Tankis & Savietto remix)
06. Marco V - The Great Escape
07. Red Hot Chilli Peppers - By The Way (Marco V Short Hard Trance Mix)
08. Cave - Street Carnival
09. Coldplay - Clocks (Marco V Mix)
10. Marco V - Echoes (V.ision Mix)
11. Astrix - Eye To Eye
12. Kay D Smith & Marc Tall - Passive Resistance (Hoipolloi Mix)
13. Marco V - C:\Del.mp3
14. Ricky Fobis - No Regular
15. Motorcycle - As The Rush Comes (Sweeping Strings Mix)
16. ID-t s UP (Disco House Remix)
17. Marco V vs. Jens - Loops And Tings Relooped
18. Michael Splint pres Eruption - I Feel Free (DJ Choose & And Fs That Mucho Remix)
19. Marco V - Simulated (V.ision Mix)
http://www.megaupload.com/?d=DUPOMDN7

2004-05-08 Armin van Buuren Live at Bacardi and M.o.S. at La Cubierta in Leganes - Madrid (ES)
00 Intro
01 Antiloop - Hello Strings
02 Ton TB - Dream Machine (Original Mix)
03 Mark Norman - Phantom Manor
04 Abel Ramos - Aquarius (Randy Katana Remix)
05 DJ Tiësto - Adagio For Strings
06 Age Of Love - The Age Of Love (Marc Et Claude Remix)
07 Armin van Buuren - Communication Part 3
08 U-Turn - One Way
09 Gavyn Mytchel Presents Mnemonic - Insurrection (Original Mix)
10 The Thrillseekers - New Life (Lange Remix)
11 Armin van Buuren Feat. Justine Suissa - Burned With Desire (Brian Cross Remix)
http://www.megaupload.com/?d=GPOJ4E2Z

Last edited by SeventhSun on Mar-05-2006 at 21:15

Old Post Mar-05-2006 17:03  Canada
Click Here to See the Profile for SeventhSun Click here to Send SeventhSun a Private Message Add SeventhSun to your buddy list Report this Post Reply w/Quote Edit/Delete Message
DarkAngel
.



Registered: Nov 2002
Location: .
Thumbs down

quote:
Originally posted by TranceGrooves
Kyau vs Albert - Live At RMI Trance Xplosion 2006

02. Gabriel & Dresden Feat. Molly - Tracking Treasure Down



Why, GOD?


WHY!?

Old Post Mar-05-2006 17:08 
Click Here to See the Profile for DarkAngel Click here to Send DarkAngel a Private Message Visit DarkAngel's homepage! Add DarkAngel to your buddy list Report this Post Reply w/Quote Edit/Delete Message
SeventhSun
Supreme tranceaddict



Registered: Sep 2002
Location: Here

quote:
Originally posted by SeventhSun
Talla 2XLC - Special Mix Tribute To Mark Spoon 01-12-2006

Expired, can I get refresh?

Love Jam n Spoon. Miss Mark already.


Still not working.

Old Post Mar-05-2006 17:11  Canada
Click Here to See the Profile for SeventhSun Click here to Send SeventhSun a Private Message Add SeventhSun to your buddy list Report this Post Reply w/Quote Edit/Delete Message
Jem_hadar
I remember...



Registered: Nov 2003
Location: Pandora (South of Nowhere)

quote:
Originally posted by DarkAngel
Why, GOD?


WHY!?


It's because you belive in a god. ^5


___________________
TECHNO IS THE BEST NOISE ON EARTH.
Save Techno - Stop Minimal / Tech-House

Old Post Mar-05-2006 17:16  Canada
Click Here to See the Profile for Jem_hadar Click here to Send Jem_hadar a Private Message Visit Jem_hadar's homepage! Add Jem_hadar to your buddy list Report this Post Reply w/Quote Edit/Delete Message
DarkAngel
.



Registered: Nov 2002
Location: .

quote:
Originally posted by Jem_hadar
It's because you belive in a god. ^5




I see THAT goddamn fucking song in a KvA tracklist and I wanna PUKE. It was bad enough to hear Ferry play it in December live, but KvA too?


WTPLOW!?

Old Post Mar-05-2006 17:22 
Click Here to See the Profile for DarkAngel Click here to Send DarkAngel a Private Message Visit DarkAngel's homepage! Add DarkAngel to your buddy list Report this Post Reply w/Quote Edit/Delete Message
TranceGrooves
TiTan Of TrAncE



Registered: May 2005
Location: EVERYWHERE

quote:
Originally posted by m2j
you gotta give us some time for that bro.

cuz it involves searching 64 pages to find our posts.
or we could start doing the index thing for the next thread... so we can keep track of them as we go.


oh yeah for sure. you gots all the time in the world lolz i didnt mean it like do it NOW lolz. but yeah for the next download thread i am gonna myself do things a bit more differently so its much easier more efficient and more fun

but for now here is

Armin Van Buuren - A State Of Trance 238 03-02-2006

Tracklist:
01. Karen Overton - Your Loving Arms (Club Mix) [Tune Of The Week]
02. Gustavo Santaolalla - The Wings (Theme from Brokeback Mountain) (Gabriel & Dresden Organized Nature Remix)
03. ID
04. BoomJinx - Come Play Perfect
05. Sunlounger - White Sand
06. Kay Stone - Alone (Original Mix)
07. Gabriel & Dresden feat Molly Tracking Treasure Down (Group Therapy Remix)
08. Fractal Structure - Coloured Melody
09. Pesh - Threshold
10. M.I.K.E. - Voices From The Inside (M.I.K.E.s Progressiva Remix)
11. Signum - Harmonic [Future Favorite]
12. Assure - Enemy Territory
13. Sonicvibe & Tachyean - ID
14. 3rd Moon - Diving In The Sky
15. Armin Van Buuren - Sail (Carl B's Without Hope Remix)
16. Beam - On Your Mind (Sean Tyas Hard Dub Remix)
17. Dj Governor - Red Woods

Click Here

Voices from the inside is a gorgeous tune. Original and this remix both roxX. After all it is MIKE production ... as for Armin's new tune Sail ... ummm i give it a 6 out of 10. nothing fancy but it is a bit different from the usual armin hands in the air style.


___________________
Let's bring the change!!!

Old Post Mar-05-2006 17:45 
Click Here to See the Profile for TranceGrooves Click here to Send TranceGrooves a Private Message Add TranceGrooves to your buddy list Report this Post Reply w/Quote Edit/Delete Message
Jem_hadar
I remember...



Registered: Nov 2003
Location: Pandora (South of Nowhere)

quote:
Originally posted by TranceGrooves
oh yeah for sure. you gots all the time in the world lolz i didnt mean it like do it NOW lolz. but yeah for the next download thread i am gonna myself do things a bit more differently so its much easier more efficient and more fun

but for now here is

Armin Van Buuren - A State Of Trance 238 03-02-2006

Tracklist:
01. Karen Overton - Your Loving Arms (Club Mix) [Tune Of The Week]
02. Gustavo Santaolalla - The Wings (Theme from Brokeback Mountain) (Gabriel & Dresden Organized Nature Remix)
03. ID
04. BoomJinx - Come Play Perfect
05. Sunlounger - White Sand
06. Kay Stone - Alone (Original Mix)
07. Gabriel & Dresden feat Molly Tracking Treasure Down (Group Therapy Remix)
08. Fractal Structure - Coloured Melody
09. Pesh - Threshold
10. M.I.K.E. - Voices From The Inside (M.I.K.E.s Progressiva Remix)
11. Signum - Harmonic [Future Favorite]
12. Assure - Enemy Territory
13. Sonicvibe & Tachyean - ID
14. 3rd Moon - Diving In The Sky
15. Armin Van Buuren - Sail (Carl B's Without Hope Remix)
16. Beam - On Your Mind (Sean Tyas Hard Dub Remix)
17. Dj Governor - Red Woods

Click Here

Voices from the inside is a gorgeous tune. Original and this remix both roxX. After all it is MIKE production ... as for Armin's new tune Sail ... ummm i give it a 6 out of 10. nothing fancy but it is a bit different from the usual armin hands in the air style.


Tyler you GREAT ******, I JUST got my ASOT #238 playlist in my email this morning, and was actually thinking about asking someone to post the set here!!!

Then I see your name in teh thread, decide to check what you've posted and BAM! Its fucking episode 238!!!!!!!!!! THANK YOU!!!


___________________
TECHNO IS THE BEST NOISE ON EARTH.
Save Techno - Stop Minimal / Tech-House

Old Post Mar-05-2006 17:57  Canada
Click Here to See the Profile for Jem_hadar Click here to Send Jem_hadar a Private Message Visit Jem_hadar's homepage! Add Jem_hadar to your buddy list Report this Post Reply w/Quote Edit/Delete Message
Jem_hadar
I remember...



Registered: Nov 2003
Location: Pandora (South of Nowhere)

quote:
Originally posted by TranceGrooves
Tracklist:
01. Karen Overton - Your Loving Arms (Club Mix) [Tune Of The Week]
02. Gustavo Santaolalla - The Wings (Theme from Brokeback Mountain) (Gabriel & Dresden Organized Nature Remix)
03. ID
04. BoomJinx - Come Play Perfect
05. Sunlounger - White Sand
06. Kay Stone - Alone (Original Mix)
07. Gabriel & Dresden feat Molly Tracking Treasure Down (Group Therapy Remix)
08. Fractal Structure - Coloured Melody
09. Pesh - Threshold
10. M.I.K.E. - Voices From The Inside (M.I.K.E.s Progressiva Remix)
11. Signum - Harmonic [Future Favorite]
12. Assure - Enemy Territory
13. Sonicvibe & Tachyean - ID
14. 3rd Moon - Diving In The Sky
15. Armin Van Buuren - Sail (Carl B's Without Hope Remix)
16. Beam - On Your Mind (Sean Tyas Hard Dub Remix)
17. Dj Governor - Red Woods


Official Playlist (w/o any IDs):

1. TUNE OF THE WEEK: Karen Overton - Your Loving Arms (club mix) (Supra recordings)
2. Gustavo Santaolalla - Brokeback Mountain Theme(Gabriel & Dresden remix) (Verve Music Group)
3. Glenn Frantz - Borderline
4. Boom Jinx - Come play Perfect (Anjunadeep)
5. Sunlounger - White Sand (Armind)
6. Kay Stone - Alone (Mondo)
7. Gabriel & Dresden feat. Molly - Tracking Treasure Down (Kyau vs Albert remix) (Organised Nature)
8. Fractal Structure - Coloured Melody (Alter Ego records)
9. Pesh - Threshold (Anjunabeats)
10. M.I.K.E. - Voices from the Inside (progressiva mix) (Club Elite)
11. FUTURE FAVORITE: Signum - Harmonic (ASOT)
12. Unknown Artist - Unknown Title (White)
13. Sonicvibe & Tachyean present Allegoria - Allegoria
14. 3rd Moon - Diving in the Sky (Somatic Sense)
15. Armin van Buuren - Sail (Carl B's Without Hope remix) (Armind)
16. Beam - On Your Mind (Sean Tyas hard dub) (Beam Traxx)
17. O Callaghan & Kearney - Exactly (Discover)
18. DJ Govenor - Red Woods (Armada)


___________________
TECHNO IS THE BEST NOISE ON EARTH.
Save Techno - Stop Minimal / Tech-House

Old Post Mar-05-2006 17:59  Canada
Click Here to See the Profile for Jem_hadar Click here to Send Jem_hadar a Private Message Visit Jem_hadar's homepage! Add Jem_hadar to your buddy list Report this Post Reply w/Quote Edit/Delete Message
TranceGrooves
TiTan Of TrAncE



Registered: May 2005
Location: EVERYWHERE

quote:
Originally posted by Jem_hadar
Tyler you GREAT ******, I JUST got my ASOT #238 playlist in my email this morning, and was actually thinking about asking someone to post the set here!!!

Then I see your name in teh thread, decide to check what you've posted and BAM! Its fucking episode 238!!!!!!!!!! THANK YOU!!!


you are welcome

however i must warn that i think this will be the last of armin' a state of trance i may be posting unless its a wicked ly insane mind blowing episode like episode 192
i am gonna step away from the top 10 artists for a bit and gonna take a ride into the worlds of artists such as astral projection orkidea percision menno de jong perry o neil and such as. i think it will be a nice change ... but not to worry if i come across a killer set from the big names you bet your ass u will see it here

*edit*
oh and i almost forgot ... expect alot more techno in my uploads in coming weeks. the techno in me is on a big big rise and i partialy blame magikal jenn and DAVE the drummer for it lolz


___________________
Let's bring the change!!!

Old Post Mar-05-2006 18:02 
Click Here to See the Profile for TranceGrooves Click here to Send TranceGrooves a Private Message Add TranceGrooves to your buddy list Report this Post Reply w/Quote Edit/Delete Message
PressPLay
Connoisseur of Beauty



Registered: Feb 2006
Location: Round & round

quote:
Originally posted by TranceGrooves
you are welcome

however i must warn that i think this will be the last of armin' a state of trance i may be posting unless its a wicked ly insane mind blowing episode like episode 192


Dude, would you mind uploading ASOT 192 so I may listen to this mythic and amazing set that you mentioned!

Old Post Mar-05-2006 18:10  Canada
Click Here to See the Profile for PressPLay Click here to Send PressPLay a Private Message Add PressPLay to your buddy list Report this Post Reply w/Quote Edit/Delete Message
m2j
Music Addict



Registered: Nov 2004
Location: Toronto, Canada



Timo Maas
Essential Mix 2004.11.21


Download

Track List:
-----------
Circulation - 'Graphite' (White)
Humate - 'Breed' (Terrace)
Roman Flugel - 'Gelits Noes' (Cocoon)
H-Man - 'Manga' (Giant Wheel)
Jon Carter - 'Dirty Old Man' (Saville Row)
Da Fresh - 'The Dirty Dozen' (Missile)
Greg Churchill - 'Infused Trash' (Underwater)
Chocolate Puma - 'A Star Is Born' (White)
B+B - 'Can't Get Enough' (White)
TV = The Devil 'Gisli' [Radio Slave Remix] (EMI)
Mateo Murphy - 'Meltdown' (Underwater)
Remy & Roland - 'Fearless Til Ya Drop' (Electonic Elements)
Da Fresh 'Dope Me' [Unknown Remix] (Zebra)
Unknown - 'Left Foot' (White)
Unknown - 'Bush Lied' (White)
Steve Angello - 'Tribal Inc.' (Tum Bata)
General Levi - 'House Of Funk' (White)
Tom Real - 'Just Bash Out' (Functional Breaks)
Moby 'Go 2004' (White)
Placebo - '20 Years' [Timo Maas Remix] (Virgin)



Kyau vs Albert
Euphonic Sessions on ETN.fm 2006-02-02


Download

Track List:
-----------
Coldplay - Talk (Junkie XL Remix)
Gabriel & Dresden feat. Molly - Tracking Treasure Down
ID
Sun Decade - Have It All (Thomas Penton Dub)
Morrison - Do Your Thing (Dub Mix)
Kyau vs Albert - Kiksu
ID
Above & Beyond - Alone Tonight
Sunny Lax - P.U.M.A.
Kyau vs Albert - Walk Down
Nu Nrg - Casino (Stoneface & Terminal Remix)


Cue:
----

code:
TRACK 01 AUDIO TITLE "Coldplay - Talk (Junkie XL Remix)" INDEX 01 00:00:00 TRACK 02 AUDIO TITLE "Gabriel & Dresden feat. Molly - Tracking Treasure Down" INDEX 01 00:00:00 TRACK 03 AUDIO TITLE "ID" INDEX 01 13:30:00 TRACK 04 AUDIO TITLE "Sun Decade - Have It All (Thomas Penton Dub)" INDEX 01 18:43:00 TRACK 05 AUDIO TITLE "Morrison - Do Your Thing (Dub Mix)" INDEX 01 23:24:00 TRACK 06 AUDIO TITLE "Kyau vs Albert - Kiksu" INDEX 01 27:57:50 TRACK 07 AUDIO TITLE "ID" INDEX 01 32:58:00 TRACK 08 AUDIO TITLE "Above & Beyond - Alone Tonight" INDEX 01 39:36:40 TRACK 09 AUDIO TITLE "Sunny Lax - P.U.M.A." INDEX 01 44:26:00 TRACK 10 AUDIO TITLE "Kyau vs Albert - Walk Down" INDEX 01 50:41:00 TRACK 11 AUDIO TITLE "Nu Nrg - Casino (Stoneface & Terminal Remix)" INDEX 01 56:22:00




DJ Icey - Automatic Static 16 - 02.04.2006

1. MyLowDownDirty- Soul of Man (Finger Lickin')
2. False Awakening- Lifecycle (LondonBreakz)
3. Big Bad Bruiser (Diveretd Remix)-Groovediggerz (Even Flow)
4. Bring it on Down-Aquasky & Drumattic Twins (Passenger)
5. Movement 2 Escape (Viro & Euphorik mix)-Superfly Jeff / Shakka
6. Your Wrong feat Burke One (Skoolof Thought Mix)-Superstyle Deluxe (Supercharged)
7. Fat Cats (Diverted remix) - No Hands - (Diverted Traffic)
8. Good to Go (DJ Icey Remix)- General Midi (Distict'ive Records)
9. Sunblock- Olav Basoski (Rootz)
10. Let's Get Dirty- NAPT
11. Funky Planet (White Label)
12. Alley Dweller (VIP Mix)- Lucas Hart (Pure Phunk)

Download



Stanton Warriors
Essential Mix 2004-07-24

Download

Track List:
----------
Stanton Warriors - Slanty (dub mix) - White
Metro Area - Muira (Stanton booty mix) - White
Maddox - Hypnotic Funk - Mantra Breaks
Freestylers - Push Up (Plump Dj's rmx) - Against the Grain
Stanton Warriors - Adventures in Success Dub feat Ludicris - White
Stanton Warriors - Head Rock - White
Mousse T - Is it because I'm cool (Shakedown dub) - Free 2 air
Dylan Ryhmes - The Way (Evil 9 rmx) - Lot49
Murk - Fired up (Breaks mix) - White
Funky green frogs - White
Jerk it - Punks
Dancing in the Park - Punks
Stanton Warriors - Hope Time - White
Propella Heads Take California (Smithmonger rmx) - White
Spectrum - Kind of New (Breaks Mix) - White
Goldie - Innercity Life (Breaks Booty Mix) - White
Stanton Warriors - When I Wake (club mix) - White
Plump Dj's - Soul Vibrates - Finger Licking
Drumattic Twins - Rock Steady - Finger Licking
Freaking Out - White Label
Dj Zinc - Go DJ rmx - Bingo
Stanton Warriors - Who Are The Warriors - White


Calibre & MC DRS
Breeze Block 01/03/2005


Download

THEORY Presents: CALIBRE & MC DRS @ The Gallery 2006.03.03

Track List:
-----------
Calibre- 'Maybe Sometime' (Signature)
Raf & Ill Logic- 'Shoot Out' (31)
Calibre- 'Second Sun' (Signature)
Calibre Feat. Lariman- 'Consulate Charm' (Signature)
ST CAl- 'Henshaw Dub' (Solar)
Tactile- 'Caravan' (White)
Calibre feat. MC Crow- 'Kiva' (Signature)
Mist. feat. MC Tweed- 'Untitled' (White)
Visionary- 'No. 9 Dub' (Revolver)
13& God- 'L'Atlas Flexible/Von Gradleute (Hrvatski Remix)' (Alien Transistor)
One Self- 'Be Your Own' (Ninja Tune)
Nathan Fake- 'Dinamo' (Traum Schallplatten)



Yoji Biomehanika
Essential Mix 2005.04.03

Download


Track List:
-----------
Public Domain - 'Americana' (Incentive)
Paffendorf - 'Welcome To America' [Technopunk Remix] (Kontor)
Thilo & Evanti - 'Static' (Straight On Black)
Riot303 vs Observer - 'Kickin' & Alive' (Everlasting)
Remo-Con - 'G-Sigh' (Hellhouse)
Ghost - 'Who's Fucking Me' (GS2)
JC Russel - 'Huntdown 4am' (Matrix)
Mark Sherry - 'Venegeance' (Detox)
Yoji Biomehanika - 'Never End' [Version-x] (Hellhouse)
Eurotrash - 'Get Up, Get Down' [Yoji Biomehanika Remix] (Stimulant)
Yoji Biomehanika - 'Samurai' (Hellhouse)
Tobias Luke - 'Seek & Destroy' (Compressed)
Yoji Biomehanika - 'Monochroma' [Romeo Toscani Remix] (Hellhouse)
Derler & Klitzing - 'My Life' (Proceed)
Dark By Design - 'Blackout' [Yoji Biomehanika & Romeo Toscani Remix] (Good Greef)
Cruz & The White feat. DJ Steph - 'Technology' (Patriot Hardbeat)
Thilo & Evanti - 'Caution' (Straight On Black)
Yoji Biomehanika - 'Monochroma [ Blutonium Boy vs. DJ Neo Remix]' (Hellhouse)
DJ Century & Synthetic - 'Ipanema' (Illuminate)
Dave202 meets Dumonde - 'Singularity' (F8T)
Gouryella - 'Ligaya' [Yoji Biomehanika Remix] (Carnal Purple Eye Entertainment)

Cue:
----
code:
PERFORMER "Public Domain" TITLE "Americana" INDEX 01 00:00:00 TRACK 02 AUDIO PERFORMER "Paffendorf" TITLE "Welcome to Afrika (Technopunk Remix)" INDEX 01 07:16:60 TRACK 03 AUDIO PERFORMER "Thilo and Evanti" TITLE "Static" INDEX 01 12:27:20 TRACK 04 AUDIO PERFORMER "Riot303 vs. Observer" TITLE "Kickin and Alive" INDEX 01 16:38:10 TRACK 05 AUDIO PERFORMER "Remo-Con" TITLE "G-Sigh" INDEX 01 22:12:65 TRACK 06 AUDIO PERFORMER "Ghost" TITLE "Who's F***ing Me" INDEX 01 27:16:20 TRACK 07 AUDIO PERFORMER "JC Russel" TITLE "Huntdown 4am" INDEX 01 31:15:00 TRACK 08 AUDIO PERFORMER "Mark Sherry" TITLE "Venegeance" INDEX 01 35:18:30 TRACK 09 AUDIO PERFORMER "Yoji Biomehanika" TITLE "Never End (Version-X)" INDEX 01 40:33:30 TRACK 10 AUDIO PERFORMER "Eurotrash" TITLE "Get up, Get down (Yoji Biomehanika Remix)" INDEX 01 50:58:30 TRACK 11 AUDIO PERFORMER "Yoji Biomehanika" TITLE "Samurai" INDEX 01 58:35:55 TRACK 12 AUDIO PERFORMER "Tobias Luke" TITLE "Seek and Destroy" INDEX 01 65:30:30 TRACK 13 AUDIO PERFORMER "Yoji Biomehanika" TITLE "Monochroma (Romeo Toscani Remix)" INDEX 01 69:20:50 TRACK 14 AUDIO PERFORMER "Derler and Klitzing" TITLE "My Life" INDEX 01 75:38:20 TRACK 15 AUDIO PERFORMER "Dark by Design" TITLE "Blackout (Yoji Biomehanika and Romeo Toscani Remix)" INDEX 01 80:43:60 TRACK 16 AUDIO PERFORMER "Cruz and The White featuring Steph" TITLE "Technology" INDEX 01 86:25:20 TRACK 17 AUDIO PERFORMER "Thilo and Evanti" TITLE "Caution" INDEX 01 91:14:30 TRACK 18 AUDIO PERFORMER "Yoji Biomehanika" TITLE "Monochroma (Blutonium Boy vs. Neo Remix)" INDEX 01 96:40:00 TRACK 19 AUDIO PERFORMER "Century and Synthetic" TITLE "Ipanema" INDEX 01 102:11:55 TRACK 20 AUDIO PERFORMER "Dave202 meets Dumonde" TITLE "Singularity" INDEX 01 106:29:40 TRACK 21 AUDIO PERFORMER "Gouryella" TITLE "Ligaya (Yoji Biomehanika Remix)" INDEX 01 111:30:60




Rennie Pilgrem
Essential Mix 2005.11.27


Download

Track List:
-----------
Rennie Pilgrem - '555' (TCR)
Rennie Pilgrem - 'Ow' (TCR)
JDS - 'P Funk' (TCR)
Pimpwax - 'Can't Stop' (Dead Famous)
Rennie Pilgrem Feat Chickaboo - 'Celeb' (TCR)
Paradox 300 - 'Groovers & Shakers' (Punk Funk)
Elite Force - 'Mindfunk' (Kingsize)
Jem Stone & JC - 'Disco Daze' (Fingerlickin)
Mr Potato Head - 'Bowie Knife' (TCR)
3Hz & Baobinga - 'Rip Shit Up' (CDR)
Unknown - 'iBreaks 3' (Maddox Remix) (ibreaks)
Rennie PIlgrem - 'U Know' (TCR)
Aquasky & Meat Katie - 'Overneath' (Passenger)
Mike & Charlie - 'I Get Live' (Regal)
Rennie PIlgrem - 'Super Crazy Ill Bombs' (TCR)
Unkown - 'Voices' (White Label)
Rennie Pilgrem- 'Get Off' (TCR)
Ram Jam - 'Black Betty' (TCR)
Dumb Blonde - 'We Have The Technology' (White)
Circuit Breaker - 'Gateway' (Lot 49)
Coburn - 'We Interrupt This Programme' (Stanton Warriors mix) (White)
Artcrime - 'Like This' (Rollover)
Jhz - 'Jack Jack' (TCR)
Rennie PIlgrem & Blim - 'Yaffle' (TCR)
Uberzone - 'Satisfaction' (CDR)
Slyde - 'Vibrate To This' (Trouble Soup Mix) (Fingerlickin)
Santos - 'Pump It Out' (Mantra)
Aquasky - 'Girls/Boys' (Passenger)
Paradox 300 Vs Kasabian - 'Processed Breaks' (White)
David Bowie - 'John I'm Only Dancing' (White)



Adam Sheridan
Essential Mix 2004-01-25


Track List:
-----------
Remy - ‘Napolitan’ (Combined Forces)
V.R. Volvox - ‘Herzmaschine’ (Staub)
Stephan J Kroos – ‘Phanzmz’ (Anjunabeats)
Martin H - ‘Liftin’ (ACDC)
Miro -’By Your Side’ (Euphonic)
Adam Sheridan - ‘Captured’ (White)
Emperical Labs -’Turtle Beech’ (A State Of Trance)
Super 8 -’Alba’ (Anjunabeats)
Primer - ‘Indulge’ (Progrez)
DJ Dano & Rob Styles - ‘Aragon’ (Captivating Sounds)
Unknown - ‘Unknown’
Christian Varela – Underground Station (Equator)
Huntmann - ‘Discotech’
Emanuel Top - ‘Mars’ (Traccid Traxx)
Frank Biazzi - ‘Turbulence’ (Lupp)
Renato Cohen - ‘Pontapae’ (Intec)
Don Diablo - ‘Useless’ (ID-T)
Max Walder - ‘Compressor’ (Terminal M)
Tiesto - ‘Traffic’ (Nebula)
Cloxx - ‘Overdrive’ (Spinnin Records)
Adam Sheridan - ‘Terminal Velocity’ (White)
Ronald Van Gelderan - ‘Sustain’ (Tsunami)
G&M Project – Sunday Afternoon’ (ID-T)
Nu NRG - ‘Connective’ (Vandit)
Adam Sheridan - ‘Electro Sessions Part 1’ (White)
Adam Sheridan - ‘Lektrik’ (Tatsumaki)

Download



HIGH CONTRAST
Essential Mix

Track List:
-----------
The Streets - 'It's too Late (high contrast mix) ' (679)
London Electricity - 'To Be Free' (Hospital)
High Contrast - 'Twilights Last Gleaming' (Hospital)
Cyantific - '90' (Hospital)
Unknown - 'Searching for my Rizla' (White Label)
Influx Datum UK - 'Sing Out' (Formation)
Nu:Tone - 'Our House (Calibre Remix)' (White )
High Contrast - 'Return of Forever' (Hospital)
Roland Clarke - 'I Get Deep (Accapella)' (Shelter)
D. Kay + DJ Lee - 'Manipulate the Universe'(White Label)
John B - 'Without U' (White Label)
Mind Machine - 'Barcelona (High Contrast Remix) (BC recordings)
Unknown - 'Delirium remix' (white label)
Kaos - 'Studio 54' (Human)
Matrix - 'Trippin Remix' (White label)
MIST - 'Outer Space' (Soul:R)
High Contrast - 'Love sick' (Hospital)
London electricity - 'Born 2 Synthesize' (Hospital)
FSOL - 'Papua New Guinea remix' (White Label)
Unknown - 'LFO remix' (White Label)
Unknown - 'Gypsey Woman rmx' (White Label)
Nu:Tone - 'Do It/ Feel It' (White Label)
High Contrast - 'The Basement Track' (Hospital)
Landslide - 'It's Not Over (Influx Datum UK remix) (Hospital)
MIST - 'Barracuda' (Soul:R)
Johnny L - 'Let's Roll' (Pirahna)
Photek - 'The End Remix' (Photek Productions)
London Electricity - 'Different Drum' (Hospital)
Omni Trio - 'Renegade Snares (High Contrast Remix)' (Moving Shadow)

Download

Enjoy.

CUE:
code:
TRACK 01 AUDIO TITLE "Intro" INDEX 01 00:00:00 TRACK 02 AUDIO TITLE "It's too Late (high contrast mix) (679)" PERFORMER "The Streets" INDEX 01 01:21:00 TRACK 03 AUDIO TITLE "To Be Free (Hospital) " PERFORMER "London Electricity" INDEX 01 05:07:30 TRACK 04 AUDIO TITLE "Twilights Last Gleaming (Hospital) " PERFORMER "High Contrast" INDEX 01 08:38:00 TRACK 05 AUDIO TITLE "90 (Hospital)" PERFORMER "Cyantific" INDEX 01 14:34:00 TRACK 06 AUDIO TITLE "Searching for my Rizla (White Label)" PERFORMER "Unknown" INDEX 01 18:58:00 TRACK 07 AUDIO TITLE "Sing Out (Formation)" PERFORMER "Influx Datum UK" INDEX 01 24:05:00 TRACK 08 AUDIO TITLE "Our House (Calibre Remix) (White )" PERFORMER "Nu:Tone" INDEX 01 28:16:35 TRACK 09 AUDIO TITLE "Return of Forever (Hospital) [Roland Clarke - I Get Deep (Accapella) (Shelter)]" PERFORMER "High Contrast" INDEX 01 32:47:50 TRACK 10 AUDIO TITLE "Manipulate the Universe (White Label)" PERFORMER "D. Kay + DJ Lee" INDEX 01 37:56:00 TRACK 11 AUDIO TITLE "Without U (White Label)" PERFORMER "John B" INDEX 01 42:19:00 TRACK 12 AUDIO TITLE "Barcelona (High Contrast Remix) (BC recordings)" PERFORMER "Mind Machine" INDEX 01 45:36:00 TRACK 13 AUDIO TITLE "Delirium remix (white label)" PERFORMER "Unknown" INDEX 01 48:21:00 TRACK 14 AUDIO TITLE "Studio 54 (Human)" PERFORMER "Kaos" INDEX 01 53:05:00 TRACK 15 AUDIO TITLE "Trippin Remix (White label)" PERFORMER "Matrix" INDEX 01 56:44:00 TRACK 16 AUDIO TITLE "Outer Space (Soul:R)" PERFORMER "MIST" INDEX 01 61:06:00 TRACK 17 AUDIO TITLE "Love sick (Hospital)" PERFORMER "High Contrast" INDEX 01 65:50:00 TRACK 18 AUDIO TITLE "Born 2 Synthesize (Hospital)" PERFORMER "London electricity" INDEX 01 71:24:40 TRACK 19 AUDIO TITLE "Papua New Guinea remix (White Label)" PERFORMER "FSOL" INDEX 01 76:00:00 TRACK 20 AUDIO TITLE "LFO remix (White Label)" PERFORMER "Unknown" INDEX 01 81:54:40 TRACK 21 AUDIO TITLE "Gypsey Woman rmx (White Label)" PERFORMER "Unknown" INDEX 01 83:45:00 TRACK 22 AUDIO TITLE "Do It/ Feel It (White Label) " PERFORMER "Nu:Tone" INDEX 01 87:17:40 TRACK 23 AUDIO TITLE "The Basement Track (Hospital)" PERFORMER "High Contrast" INDEX 01 90:44:00 TRACK 24 AUDIO TITLE "It's Not Over (Influx Datum UK remix) (Hospital)" PERFORMER "Landslide" INDEX 01 93:55:30 TRACK 25 AUDIO TITLE "Barracuda (Soul:R)" PERFORMER "MIST" INDEX 01 98:46:00 TRACK 26 AUDIO TITLE "Let's Roll (Pirahna)" PERFORMER "Johnny L" INDEX 01 100:37:30 TRACK 27 AUDIO TITLE "The End Remix (Photek Productions)" PERFORMER "Photek" INDEX 01 104:39:00 TRACK 28 AUDIO TITLE "Different Drum' (Hospital)" PERFORMER "London Electricity" INDEX 01 109:55:40 TRACK 29 AUDIO TITLE "Renegade Snares (High Contrast Remix) (Moving Shadow)" PERFORMER "Omni Trio" INDEX 01 114:29:40




Plump DJs - Essential Mix 15/06/2003

Track List:
-----------
Plump DJs - 'Funk Hits The Fan' (Finger Lickin)
Plump DJs - 'Weighed Down' (Finger Lickin)
Drummatic Twins - 'Invincible Bass' (Finger Lickin)
Siedah Garvett - 'Kissing' (Qwest)
Zulu Nation - 'Chant' (Cyber)
Tony Faline - 'Feel The Funk' (Air)
Robbie Rivera - 'Funkatron' (White Label)
Luke Fair - 'Untitled' (White Label)
Mary J Blige - 'Family Affair' (MCA)
Zero - 'unknown' (Streetwise)
Elite Force - 'No Turning Back' (Whole 9 Yards)
Freeland - 'We Want Your Soul' (Marine Parade)
Tricknology No 3 - 'Hardflow' (White Label)
Apollo Kids - 'Counting Off' (Fat)
Plump DJs - 'Pray 4 U' (Finger Lickin)
2 Sinners - 'Kingpin' (252)
unknown - 'unknown' (unknown)
GPA - 'Velvet Voodoo' (Global Harmony)
New Order vs Slam - 'Crystal Education' (White Label)
Soul Of Man - 'Save All Your Kisses' (Finger Lickin)
Rennie Pilgrim - 'Some Place Funky' (White Label)
Plump DJs - 'Contact 00' (Finger Lickin)
Plump DJs - 'How Much Is Enough ' (Finger Lickin)
Plump DJs - 'Get Kinky' (Finger Lickin)
Xpress 2 - 'London Express' (JBO)
Hijack - 'The Badman Is Robin' (White Label)
Underworld - 'Born Slippy' (JBO)
Electronauts - 'Bumper' (Lacerba)
Plump DJs - 'The Gate' (Finger Lickin)

http://www.megaupload.com/?d=PJFW85BM

Enjoy

P.S. The Cue:

code:
TRACK 01 AUDIO PERFORMER "Plump DJs" TITLE "Funk Hits The Funk" INDEX 01 00:00:00 TRACK 02 AUDIO PERFORMER "Plump DJs" TITLE "Weighed Down" INDEX 01 06:41:20 TRACK 03 AUDIO PERFORMER "Drummatic Vs Seidah Garvett" TITLE "Kiss My Bass" INDEX 01 13:31:50 TRACK 04 AUDIO PERFORMER "Zulu Nation" TITLE "The Chant" INDEX 01 17:33:50 TRACK 05 AUDIO PERFORMER "Tony Faline" TITLE "Feel The Funk" INDEX 01 21:49:30 TRACK 06 AUDIO PERFORMER "Robbie Rivera" TITLE "Funkatron" INDEX 01 27:02:10 TRACK 07 AUDIO PERFORMER "Luke Fair Vs Mary J. Blige" TITLE "Family Affair" INDEX 01 32:14:70 TRACK 08 AUDIO PERFORMER "Zero Emit" TITLE "Collect" INDEX 01 38:38:65 TRACK 09 AUDIO PERFORMER "Elite Force vs Freland" TITLE "No Turning Back On Your Soul" INDEX 01 44:05:60 TRACK 10 AUDIO PERFORMER "Tricknology No 3" TITLE "Hardflow" INDEX 01 48:00:00 TRACK 11 AUDIO PERFORMER "Apollo Kids" TITLE "Counting Off" INDEX 01 54:37:00 TRACK 12 AUDIO PERFORMER "2sinners" TITLE "Kingpin" INDEX 01 57:55:18 TRACK 13 AUDIO PERFORMER "Curiosity Killed The Cat" TITLE "Down To Earth" INDEX 01 60:02:65 TRACK 14 AUDIO PERFORMER "GPA" TITLE "Velvet Voodoo" INDEX 01 64:08:70 TRACK 15 AUDIO PERFORMER "Soul Of Man" TITLE "Save All Your Kisses" INDEX 01 67:12:20 TRACK 16 AUDIO PERFORMER "Rennie Pilgrem" TITLE "Some Place Funky" INDEX 01 72:22:25 TRACK 17 AUDIO PERFORMER "Plump DJs" TITLE "Contact 00" INDEX 01 77:50:50 TRACK 18 AUDIO PERFORMER "Plump DJs" TITLE "How Much Is Enough" INDEX 01 84:10:35 TRACK 19 AUDIO PERFORMER "Plump DJs" TITLE "Get Kinky" INDEX 01 89:33:00 TRACK 20 AUDIO PERFORMER "Xpress 2" TITLE "London Express" INDEX 01 93:44:00 TRACK 21 AUDIO PERFORMER "Hijack" TITLE "The Badman Is Robin" INDEX 01 95:36:60 TRACK 22 AUDIO PERFORMER "Born Sloppy" TITLE "Bootleg" INDEX 01 102:02:50 TRACK 23 AUDIO PERFORMER "Plump DJs" TITLE "The Extended Gate" INDEX 01 110:25:60



___________________
-M2J

For set downloads, event details and radio schedule visit:
http://www.vitalevents.net/

Last edited by m2j on Mar-07-2006 at 15:34

Old Post Mar-05-2006 18:16  Canada
Click Here to See the Profile for m2j Click here to Send m2j a Private Message Visit m2j's homepage! Add m2j to your buddy list Report this Post Reply w/Quote Edit/Delete Message

TranceAddict Forums > Local Scene Info / Discussion / EDM Event Listings > Canada > Canada - Toronto & Southern Ont. > Download Thread.
Post New Thread    Post A Reply

Pages (176): « 1 2 3 4 5 6 7 8 9 10 11 12 13 14 15 16 17 18 19 20 21 22 23 24 25 26 27 28 29 30 31 32 33 34 35 36 37 38 39 40 41 42 43 44 45 46 47 48 49 50 51 52 53 54 55 56 57 58 59 60 61 62 63 64 65 66 67 68 69 70 71 72 73 74 75 76 77 78 79 [80] 81 82 83 84 85 86 87 88 89 90 91 92 93 94 95 96 97 98 99 100 101 102 103 104 105 106 107 108 109 110 111 112 113 114 115 116 117 118 119 120 121 122 123 124 125 126 127 128 129 130 131 132 133 134 135 136 137 138 139 140 141 142 143 144 145 146 147 148 149 150 151 152 153 154 155 156 157 158 159 160 161 162 163 164 165 166 167 168 169 170 171 172 173 174 175 176 »  
Last Thread   Next Thread
Show Printable Version | Subscribe to this Thread

Forum Jump:

All times are GMT. The time now is 15:56.

Forum Rules:
You may not post new threads
You may not post replies
You may not edit your posts
HTML code is ON
vB code is ON
[IMG] code is ON
 
Search this Thread:

 
Contact Us - return to tranceaddict

Powered by: Trance Music & vBulletin Forums
Copyright ©2000-2018

Privacy Statement / DMCA