Become a part of the TranceAddict community! Frequently Asked Questions - Please read this if you haven'tSearch the forums
TranceAddict Forums > Local Scene Info / Discussion / EDM Event Listings > Canada > Canada - Toronto & Southern Ont. > Download Thread.
Pages (176): « 1 2 3 4 5 6 7 8 9 10 11 12 13 14 15 16 17 18 19 20 21 22 23 24 25 26 27 28 29 30 31 32 33 34 35 36 37 38 39 40 41 42 43 44 45 46 47 48 49 50 51 52 53 54 55 56 57 58 59 60 61 62 63 64 65 66 67 68 69 70 71 72 73 74 75 76 77 78 79 80 81 82 83 84 85 86 87 88 89 90 91 92 93 94 95 96 97 98 99 100 101 102 103 104 105 106 107 108 109 110 111 112 113 114 115 116 117 118 119 120 121 122 123 124 125 126 127 128 129 130 131 132 133 134 [135] 136 137 138 139 140 141 142 143 144 145 146 147 148 149 150 151 152 153 154 155 156 157 158 159 160 161 162 163 164 165 166 167 168 169 170 171 172 173 174 175 176 »   Last Thread   Next Thread
Author
Thread    Post A Reply
zDmn
Supreme tranceaddict



Registered: May 2005
Location:

quote:
Originally posted by abyss
Armin van Buuren - A State Of Trance 244 [13-04-2006]

01. Duderstadt - Muhanjala (Original Mix)
02. A Boy Called Joni - Green Astronauts
03. Alex Monakhov - Roundabout
04. Sassot - Where It All Begun vs. Karen Overton - Your Loving Arms (Acappella)
05. Peter Dafnous & Tania Mann pres. Apollonia - Remote Kontrol (Will Holland vs. Activa Remix)
06. Mr. Sam ft. Kirsty Hawkshaw - Insight (Aira Force Remix)
07. Aira Force - No One Knows
08. Giuseppe Ottaviani - Through Your Eyes [Future Favorite]
09. John O'Callaghan & Bryan Kearney - Exactly
10. Arksun - Arisen (Original Mix) [Tune Of The Week]
11. Terry Bones - Forbidden Way (George Hales remix)
12. Midway - Cobra (Original Mix)
13. Preach - Dark Shadows
14. Danjo & Styles vs. DJ Governor - Blue Woods
15. Stoneface & Terminal - Summerscape
16. Assure - Enemy Territory
17. Thomas Datt and Robert Nickson - Tabla Mizma (Original Mix)
18. Enmass - CQ (Randy Boyer and Kristina Sky Remix)
19. Gabriel & Dresden - Sydney

Download here

Btw, it's not my link. Props to lekkerlui



i got your cue file for episode 244...

PERFORMER "Armin van Buuren"
TITLE "A State of Trance (244)(13-04-2006)"
REM ** downloaded at Spandel.nL **
REM ** CUE Created By http://music.anuga.se/ **
FILE "01_armin_van_buuren_-_a_state_of_trance_244_(di.fm)_04-13-2006-tt.mp3" MP3
TRACK 01 AUDIO
PERFORMER "Duderstadt"
TITLE "Muhanjala (Original Mix)"
INDEX 01 00:00:00
TRACK 02 AUDIO
PERFORMER "A Boy Called Joni"
TITLE "Green astronauts"
INDEX 01 07:53:72
TRACK 03 AUDIO
PERFORMER "Alex Monakhov"
TITLE "Roundabout"
INDEX 01 13:12:45
TRACK 04 AUDIO
PERFORMER "Sassot vs. Karen Overton"
TITLE "Where it all begun vs. Your loving arms (Original Mix vs. Accapella)"
INDEX 01 18:30:22
TRACK 05 AUDIO
PERFORMER "Peter Dafnous and Tania Mann presents Apollonia"
TITLE "Remote kontrol"
INDEX 01 25:17:13
TRACK 06 AUDIO
PERFORMER "Mr. Sam featuring Kirsty Hawkshaw"
TITLE "Insight (Aira Force Remix)"
INDEX 01 31:56:38
TRACK 07 AUDIO
PERFORMER "Aira Force"
TITLE "No one knows"
INDEX 01 37:58:17
TRACK 08 AUDIO
PERFORMER "Giuseppe Ottaviani"
TITLE "Through your eyes (Future Favorite)"
INDEX 01 43:18:20
TRACK 09 AUDIO
PERFORMER "John O'Callaghan and Kearney"
TITLE "Exactly"
INDEX 01 50:05:27
TRACK 10 AUDIO
PERFORMER "Arksun"
TITLE "Arisen (Tune of The Week)"
INDEX 01 57:01:05
TRACK 11 AUDIO
PERFORMER "Terry Bones"
TITLE "Forbidden way (George Hales Remix)"
INDEX 01 65:23:43
TRACK 12 AUDIO
PERFORMER "Midway"
TITLE "Cobra"
INDEX 01 71:01:09
TRACK 13 AUDIO
PERFORMER "Preach"
TITLE "Dark shadow"
INDEX 01 77:36:00
TRACK 14 AUDIO
PERFORMER "Danjo and Styles vs. Governor"
TITLE "Blue woods (Original Mix)"
INDEX 01 82:43:62
TRACK 15 AUDIO
PERFORMER "Stoneface and Terminal"
TITLE "Summerscape"
INDEX 01 90:40:22
TRACK 16 AUDIO
PERFORMER "Assure"
TITLE "Enemy territory"
INDEX 01 97:09:46
TRACK 17 AUDIO
PERFORMER "Thomas Datt vs. Robert Nickson"
TITLE "Tabla Mizma (Original Mix)"
INDEX 01 102:02:08
TRACK 18 AUDIO
PERFORMER "EnMass"
TITLE "C.Q. (Seek You)(Randy Boyer and Kristina Sky Remix)"
INDEX 01 108:05:54
TRACK 19 AUDIO
PERFORMER "Gabriel and Dresden"
TITLE "Sydney"
INDEX 01 113:50:04

Old Post Apr-14-2006 18:44  United States
Click Here to See the Profile for zDmn Click here to Send zDmn a Private Message Add zDmn to your buddy list Report this Post Reply w/Quote Edit/Delete Message
iLiptikalOrbitZ
Supreme tranceaddict



Registered: Oct 2005
Location: Toronto, Canada
Ferry in March Mixmag

A free CD mixed by Ferry Corsten was put out in the March issue of Mixmag. The following is a link to download, his related interview, and track listing.

http://www.megaupload.com/?d=HFJ2J8L5

quote:
"It was easy!" says Ferry down the phone to Mixmag early one mid-January morning. "But that's because I approached the mix like a production. Some people fine-tune for two or three weeks but I don't work like that, I think you need to capture the energy at that moment."

Melding upfront music from Oliver Prime, Gabriel & Dresden and pure Tilt trance to more unusual sounds from Si Begg and Koala, Ferry's 2006 coat is smarter, tougher and more colourful than you might expect.

"If you look at the tracklisting you see it goes everywhere and nowhere." says Ferry. "It's electro, trance, progressive and leftfield. For example, I love Si Begg's track 'Revelation' because it has a funky Underworld feel and has lots of funny edits in it. And the Koala record is very strange too, it reminds me of an old techno record with strings over the top. It's all about variety."

"At the moment, the dance market is saturated so I'm trying to be four different DJ's in my sets now. And that's how the mix has come out."

Listen and learn....


Tracklist:
1) Street Angels - Another Day (Club mix)
2) Riva - Lunar
3) Tilt - New Day (David West remix)
4) Gabriel & Dresden - Tracking Treasure Down
5) Oliver Prime - I was a bee (Ambrosia remix)
6) Si Begg - Theme
7) Koala - Optiflex
8) Purple Haze - Eden
9) DJ Fire - Summermorning
10) Acues & Elitist - Zonderland (8 Wonders remix)
11) Ronski Speed - Incognition
12) Frost & Maron - Mute Your Mind (Yield remix)
13) Yanave Presents Evanya - Las Perillas

enjoy!


___________________
"Computer games don' t affect kids; I mean if Pac- Man affected us as kids, we' d all be running around in darkened rooms, munching pills and listening to repetitive electronic music. " - Kristian Wilson, Nintendo, Inc

www.team-fingers.com
support t('.'t) by idling #fingers in mIRC in Gamesurge server

Old Post Apr-14-2006 20:30  Canada
Click Here to See the Profile for iLiptikalOrbitZ Click here to Send iLiptikalOrbitZ a Private Message Visit iLiptikalOrbitZ's homepage! Add iLiptikalOrbitZ to your buddy list Report this Post Reply w/Quote Edit/Delete Message
TheVrk
Mediterranean Canadian



Registered: Nov 2003
Location: Windsor, Canada
Re: Re: Enjoy

quote:
Originally posted by THE_Chris
The Digital Blonde

01.Marcos - Sunfire
02.AR52 - Timegate
03.OceanLab feat. Justine Suissa - Beautiful Together (Signum Remix)
04.Nick Rafferty & Paul Kershaw - We Are Connected (Marcos pres. Sunfire Remix)
05.Marcos - La Proxima Parada
06.Beetseekers - "Walk Of Notes (The Digital Blonde Remix)
07.Ingo - 48 Hours
08.Dallas Allstars - Helium
09.Basic Dawn - Pure Thrust (Nu-NRG Remix)
10.Digital Pressure - Aftershock (Alphazone Remix)


Can someone re-up this please?

Old Post Apr-15-2006 02:02  Croatia
Click Here to See the Profile for TheVrk Click here to Send TheVrk a Private Message Visit TheVrk's homepage! Add TheVrk to your buddy list Report this Post Reply w/Quote Edit/Delete Message
djroeland
Senior tranceaddict



Registered: May 2004
Location:

quote:
Originally posted by abyss
Armin van Buuren - A State Of Trance 244 [13-04-2006]

01. Duderstadt - Muhanjala (Original Mix)
02. A Boy Called Joni - Green Astronauts
03. Alex Monakhov - Roundabout
04. Sassot - Where It All Begun vs. Karen Overton - Your Loving Arms (Acappella)
05. Peter Dafnous & Tania Mann pres. Apollonia - Remote Kontrol (Will Holland vs. Activa Remix)
06. Mr. Sam ft. Kirsty Hawkshaw - Insight (Aira Force Remix)
07. Aira Force - No One Knows
08. Giuseppe Ottaviani - Through Your Eyes [Future Favorite]
09. John O'Callaghan & Bryan Kearney - Exactly
10. Arksun - Arisen (Original Mix) [Tune Of The Week]
11. Terry Bones - Forbidden Way (George Hales remix)
12. Midway - Cobra (Original Mix)
13. Preach - Dark Shadows
14. Danjo & Styles vs. DJ Governor - Blue Woods
15. Stoneface & Terminal - Summerscape
16. Assure - Enemy Territory
17. Thomas Datt and Robert Nickson - Tabla Mizma (Original Mix)
18. Enmass - CQ (Randy Boyer and Kristina Sky Remix)
19. Gabriel & Dresden - Sydney

Download here

Btw, it's not my link. Props to lekkerlui



thank you

Old Post Apr-15-2006 08:06 
Click Here to See the Profile for djroeland Click here to Send djroeland a Private Message Add djroeland to your buddy list Report this Post Reply w/Quote Edit/Delete Message
abyss
Supreme tranceaddict



Registered: Nov 2003
Location: In here
Re: Ferry in March Mixmag

quote:
Originally posted by iLiptikalOrbitZ
A free CD mixed by Ferry Corsten was put out in the March issue of Mixmag. The following is a link to download, his related interview, and track listing.


It's massive, really nice tracklisting and some experimental sounds by Ferry. Glad I got a hardcopy Highly recommended!

Old Post Apr-15-2006 08:56  Netherlands
Click Here to See the Profile for abyss Click here to Send abyss a Private Message Add abyss to your buddy list Report this Post Reply w/Quote Edit/Delete Message
m2j
Music Addict



Registered: Nov 2004
Location: Toronto, Canada

Alright boys and girls, here's a WICKED Liquid set. If Jazz and DnB had an illegidimate love child, you'd get this set.
Its pretty mellow for a DnB set, so turn it up, and chill out.

Enjoy.

Nu:Tone
Live @ Drum n Bogaloo - 2005-10-15

Download


Track List:
-----------
01. D-Kay - Serenade - Brigand
02. Logistics - West Country - Hospital
03. Nu:Tone - Heaven Sent - Hospital
04. Calibre - Is It You - Signature
05. Hotbox - Black Queen - BrandNu
06. Marcus Intalex - Bridge The Gap - Soul:R
07. Logistics - Bounce - Dub
08. Nu:Tone - Seven Years (Matrix Rmx) - Hospital
09. Cymande - The Message (Ed Rush & Optical Rmx) - White [00:23:30]
10. Quantic - Perception (Nu:Tone Rmx) - Tru Thoughts
11. Nu:Tone-vs-Syncopix - Untitled - Hospital
12. Commix - Unknown - Dub
13. Calibre - Go Back To Go Forward - Signature
14. D Bridge & Vegas - True Romance VIP - Dub
15. Commix - Five Reasons (Syncopix Rmx) - BrandNu
16. High Contrast - Racing Green - Hospital
17. Calibre - Water Carrier - Signature
18. Lenny Fontana - Spread Love (Nu:Tone Rmx) - Hospital
19. High Contrast - What We Do - The Contrast
20. London Elektricity - Remember The Future - Hospital
21. Nu:Tone - 3 Bags Full - Hospital
22. Nu:Tone & Jenna G Quick Love (Zinc Rmx) - Bingo
23. Logistics - Together - Hospital
24. Dj Zinc - Flim - (Calibre Vocal Rmx) - Bingo
25. Commix - Satellite Song - Metalheadz
26. Calibre - Consulate Charm - Signature
27. DKay + DJ Lee - Anyone Anywhere - Dub
28. Utah Jazz - Done + Dusted - Liquid V
29. Calibre - Drop It Down - Signature
30. Logistics - Take Me to the Bridge - Dub
31. Nu:Tone - The Boy Who Lost His Smile - Dub
32. Nu:Tone - Strange Encounter - Hospital
33. Shapeshifter - Long White Cloud (Nu:Tone rmx) - Dub
34. Commix - Whatever You Want - BrandNu Dub
35. Logistics - Connect 4 - Dub
36. Version - The Hustle - Dub
37. Logistics - Winter Blues - Dubs

Cue:

code:
FILE "2005-10-15 - Nu-Tone - Drum n Bogaloo.mp3" MP3 TRACK 01 AUDIO TITLE "D-Kay - Serenade - Brigand" INDEX 01 00:00:00 TRACK 02 AUDIO TITLE "Logistics - West Country - Hospital" INDEX 01 03:41:00 TRACK 03 AUDIO TITLE "Nu:Tone - Heaven Sent - Hospital" INDEX 01 05:57:00 TRACK 04 AUDIO TITLE "Calibre - Is It You - Signature" INDEX 01 08:22:00 TRACK 05 AUDIO TITLE "Hotbox - Black Queen - BrandNu" INDEX 01 11:49:00 TRACK 06 AUDIO TITLE "Marcus Intalex - Bridge The Gap - Soul:R" INDEX 01 13:22:00 TRACK 07 AUDIO TITLE "Logistics - Bounce - Dub" INDEX 01 18:08:00 TRACK 08 AUDIO TITLE "Nu:Tone - Seven Years (Matrix Rmx) - Hospital" INDEX 01 21:21:00 TRACK 09 AUDIO TITLE "Cymande - The Message (Ed Rush & Optical Rmx)" INDEX 01 24:08:00 TRACK 10 AUDIO TITLE "Quantic - Perception (Nu:Tone Rmx) - Tru Thoughts" INDEX 01 26:59:00 TRACK 11 AUDIO TITLE "Nu:Tone-vs-Syncopix - Untitled - Hospital" INDEX 01 30:01:50 TRACK 12 AUDIO TITLE "Commix - Unknown - Dub" INDEX 01 34:08:00 TRACK 13 AUDIO TITLE "Calibre - Go Back To Go Forward - Signature" INDEX 01 37:57:00 TRACK 14 AUDIO TITLE "D Bridge & Vegas - True Romance VIP - Dub" INDEX 01 40:58:00 TRACK 15 AUDIO TITLE "Commix - Five Reasons (Syncopix Rmx) - BrandNu" INDEX 01 45:04:00 TRACK 16 AUDIO TITLE "High Contrast - Racing Green - Hospital" INDEX 01 46:42:00 TRACK 17 AUDIO TITLE "Calibre - Water Carrier - Signature" INDEX 01 49:49:10 TRACK 18 AUDIO TITLE "Lenny Fontana - Spread Love (Nu:Tone Rmx) - Hospital" INDEX 01 51:22:45 TRACK 19 AUDIO TITLE "High Contrast - What We Do - The Contrast" INDEX 01 53:47:00 TRACK 20 AUDIO TITLE "London Elektricity - Remember The Future - Hospital" INDEX 01 56:44:00 TRACK 21 AUDIO TITLE "Nu:Tone - 3 Bags Full - Hospital" INDEX 01 58:48:00 TRACK 22 AUDIO TITLE "Nu:Tone & Jenna G Quick Love (Zinc Rmx) - Bingo" INDEX 01 60:43:00 TRACK 23 AUDIO TITLE "Logistics - Together - Hospital" INDEX 01 63:20:00 TRACK 24 AUDIO TITLE "Dj Zinc - Flim - (Calibre Vocal Rmx) - Bingo" INDEX 01 67:19:50 TRACK 25 AUDIO TITLE "Commix - Satellite Song - Metalheadz" INDEX 01 69:03:20 TRACK 26 AUDIO TITLE "Calibre - Consulate Charm - Signature" INDEX 01 70:49:40 TRACK 27 AUDIO TITLE "DKay + DJ Lee - Anyone Anywhere - Dub" INDEX 01 74:29:00 TRACK 28 AUDIO TITLE "Utah Jazz - Done + Dusted - Liquid V" INDEX 01 77:09:00 TRACK 29 AUDIO TITLE "Calibre - Drop It Down - Signature" INDEX 01 80:55:00 TRACK 30 AUDIO TITLE "Logistics - Take Me to the Bridge - Dub" INDEX 01 83:03:00 TRACK 31 AUDIO TITLE "Nu:Tone - The Boy Who Lost His Smile - Dub" INDEX 01 85:57:40 TRACK 32 AUDIO TITLE "Nu:Tone - Strange Encounter - Hospital" INDEX 01 87:45:00 TRACK 33 AUDIO TITLE "Shapeshifter - Long White Cloud (Nu:Tone rmx) - Dub" INDEX 01 91:54:00 TRACK 34 AUDIO TITLE "Commix - Whatever You Want - BrandNu Dub" INDEX 01 95:31:00 TRACK 35 AUDIO TITLE "Logistics - Connect 4 - Dub" INDEX 01 97:53:00 TRACK 36 AUDIO TITLE "Version - The Hustle - Dub" INDEX 01 100:29:00 TRACK 37 AUDIO TITLE "Logistics - Winter Blues - Dubs " INDEX 01 103:52:00


___________________
-M2J

For set downloads, event details and radio schedule visit:
http://www.vitalevents.net/

Old Post Apr-15-2006 12:06  Canada
Click Here to See the Profile for m2j Click here to Send m2j a Private Message Visit m2j's homepage! Add m2j to your buddy list Report this Post Reply w/Quote Edit/Delete Message
SPACEMASTERS
Supreme tranceaddict



Registered: Jul 2005
Location: Umm Miiiaammii!!!!!
Dunno

Where Global DJ Broadcast for 4/13/2006

Old Post Apr-15-2006 15:49  United States
Click Here to See the Profile for SPACEMASTERS Click here to Send SPACEMASTERS a Private Message Add SPACEMASTERS to your buddy list Report this Post Reply w/Quote Edit/Delete Message
Orko
Digital Hippie



Registered: Nov 2002
Location: Toronto, Ontario, Canada

Every week, I will now be putting up the Essential Mix from 12 years ago, this week. Here is this weeks, enjoy!

Essential Mix - 1994 04 17 - X-Press 2
(right click, save as)

Le Funk Mob - "Tribulations Extra Sensorielles"
System VIII - "Underground"
Phuture Scope - "Touch Me Right"
Big Fun - "Stomp"
Phuture - "Spirit"
M&M - "I'm Hot For You"
The Question - "Everybody"
Sonar - "State Of Panic"
Carl Craig - "Domina"
Erotic Moments - "Touch Me"
Chuggles - "Thank You"
M&M - "So Deep, So Good"
Wildtrax Vol. 4 - "Keep It Going"
Progression - "Reach Further"
Tonja Dantzler - "In And Out Of My Life"
Basement Culture - "Native Stomp"
Erik Morillo - "Dancin"
M-People - "Movin On Up"
Speedy J - "Pepper"
Johnny Vicious - "Activator"
Ifrey Max - "Lockapellas Vol. 1"
3 Man Jury - "Digital Autopsy"
Fire Island - "There But For The Grace Of God"
Pascal's Bongo Massive - "Pere Cochon"
Giant - "Music"
NY Connection - "In Front Wan' It"
Al Kooper - "The Axe"
Mindscape - "Two Three Break"
Le Funk Mob - "Tribulations Extra Sensorielles"
Sabres Of Paradise - "Edge"
Sunz Of Ishen - "Who Killed The King"
Marden Hill - "Hijack"
Emporer's New Clothes - "Unsettled Life"
Delta Lady - "Swamp Fever"
Praise Space Electric - "Diggin At The Dig In

enjoy!

Old Post Apr-15-2006 17:14  India
Click Here to See the Profile for Orko Click here to Send Orko a Private Message Add Orko to your buddy list Report this Post Reply w/Quote Edit/Delete Message
starsearcher
DigitalPunk on Flight643



Registered: Jan 2003
Location: Toronto

DJ Tiesto - Live @ Duplex Prague 20-11-2005

Wicked set full of classics and new stuff

http://www.megaupload.com/de/?d=SB9B3VV5


___________________
Photo Album: *Click*

Old Post Apr-15-2006 17:46  Israel
Click Here to See the Profile for starsearcher Click here to Send starsearcher a Private Message Visit starsearcher's homepage! Add starsearcher to your buddy list Report this Post Reply w/Quote Edit/Delete Message
smuncky
Architect



Registered: Dec 2003
Location: richmond hill, ontario, canada

Marco V - Technoclub Guestmix (SSL) 04-06-2006

http://www.megaupload.com/?d=H0559CEV

01 Marco V - The Funk Battery
02 Tatana - If I Could (Simon & Shaker Remix)
03 Le Ron & Yves Eaux Luke Star - Electrifying
04 Raul Cremona - Total Infection (Dub)
05 Madonna - Frozen (2006 Mix)
06 Gabriel & Dresden - My Blue Heart (Dub)
07 ID - In The Gun
08 Anton X - Lowis
09 Armandi - Distraction 10 Astatic - Cascada


___________________
Deviant Art - Smuncky
My Photos on Flickr
If anyone wants to share their clubbing/nightlife pics go to Toronto Nightlife

"The best car-related innovation we have is not to improve the car, but eliminate the need to drive it everywhere we go. -Alex Steffen

Old Post Apr-15-2006 18:32  Russia
Click Here to See the Profile for smuncky Click here to Send smuncky a Private Message Visit smuncky's homepage! Add smuncky to your buddy list Report this Post Reply w/Quote Edit/Delete Message
albion
Supreme tranceaddict



Registered: Feb 2006
Location: BZH, France
Smile Tongue

quote:
Originally posted by smuncky
Marco V - Technoclub Guestmix (SSL) 04-06-2006

http://www.megaupload.com/?d=H0559CEV

01 Marco V - The Funk Battery
02 Tatana - If I Could (Simon & Shaker Remix)
03 Le Ron & Yves Eaux Luke Star - Electrifying
04 Raul Cremona - Total Infection (Dub)
05 Madonna - Frozen (2006 Mix)
06 Gabriel & Dresden - My Blue Heart (Dub)
07 ID - In The Gun
08 Anton X - Lowis
09 Armandi - Distraction 10 Astatic - Cascada


Thx for marco v !!!!

Old Post Apr-15-2006 21:16  France
Click Here to See the Profile for albion Click here to Send albion a Private Message Add albion to your buddy list Report this Post Reply w/Quote Edit/Delete Message
Gillis maximus
Supreme tranceaddict



Registered: Sep 2005
Location: G-Vegas

enjoy


http://www.filefactory.com/?5dd648

DJ ICEY Automatic Static

Air Date 4/8/06 & 4/11/06
"Bizarre Love Triangle" (Santos Mix)- Robbie Rivera (Juicy Music)
"Ignition 2006" -Dynamix II (Freakin US)
"Waiting" Force Mass Motion (Critical Mass)
"Out of My Mind" (Daniel Taylor Remix)- Lee Coombs (Adrift)
"Dr. Love" (Breaks Mix)- Stella Getz
"One Foot Skank" (Autobots Remix)- Marlon & Dj Icey (Zone)
"False Awakening" Lifecycle (London Breakz)
"50K"- DEF Inc (Botchit Breaks)
"Want 2/Need 2 (Trentmoller remix)"-Sharon Phillips
"Special Dedication" Deekline & Wizard feat Topcat (Dub Plate)
"Pleasure the Bass Nympho"- Bassnectar

Old Post Apr-15-2006 23:17  United States
Click Here to See the Profile for Gillis maximus Click here to Send Gillis maximus a Private Message Add Gillis maximus to your buddy list Report this Post Reply w/Quote Edit/Delete Message

TranceAddict Forums > Local Scene Info / Discussion / EDM Event Listings > Canada > Canada - Toronto & Southern Ont. > Download Thread.
Post New Thread    Post A Reply

Pages (176): « 1 2 3 4 5 6 7 8 9 10 11 12 13 14 15 16 17 18 19 20 21 22 23 24 25 26 27 28 29 30 31 32 33 34 35 36 37 38 39 40 41 42 43 44 45 46 47 48 49 50 51 52 53 54 55 56 57 58 59 60 61 62 63 64 65 66 67 68 69 70 71 72 73 74 75 76 77 78 79 80 81 82 83 84 85 86 87 88 89 90 91 92 93 94 95 96 97 98 99 100 101 102 103 104 105 106 107 108 109 110 111 112 113 114 115 116 117 118 119 120 121 122 123 124 125 126 127 128 129 130 131 132 133 134 [135] 136 137 138 139 140 141 142 143 144 145 146 147 148 149 150 151 152 153 154 155 156 157 158 159 160 161 162 163 164 165 166 167 168 169 170 171 172 173 174 175 176 »  
Last Thread   Next Thread
Show Printable Version | Subscribe to this Thread

Forum Jump:

All times are GMT. The time now is 01:01.

Forum Rules:
You may not post new threads
You may not post replies
You may not edit your posts
HTML code is ON
vB code is ON
[IMG] code is ON
 
Search this Thread:

 
Contact Us - return to tranceaddict

Powered by: Trance Music & vBulletin Forums
Copyright ©2000-2018

Privacy Statement / DMCA