Become a part of the TranceAddict community! Frequently Asked Questions - Please read this if you haven'tSearch the forums
TranceAddict Forums > Local Scene Info / Discussion / EDM Event Listings > Canada > Canada - Toronto & Southern Ont. > Download Thread.
Pages (176): « 1 2 3 4 5 6 7 8 9 10 11 12 13 14 15 16 17 18 19 20 21 22 23 24 25 26 27 28 29 30 31 32 33 34 35 36 37 38 39 40 41 42 43 44 45 46 47 48 49 50 51 52 53 54 55 56 57 58 59 60 61 62 63 64 65 66 67 68 69 70 71 72 73 74 75 76 77 78 79 80 81 82 83 84 85 86 87 88 89 90 91 92 93 94 95 96 97 98 99 100 101 102 103 104 105 106 107 108 109 110 111 112 113 114 115 116 117 118 119 120 121 122 123 124 125 126 127 128 129 130 131 132 133 134 135 136 137 138 139 [140] 141 142 143 144 145 146 147 148 149 150 151 152 153 154 155 156 157 158 159 160 161 162 163 164 165 166 167 168 169 170 171 172 173 174 175 176 »   Last Thread   Next Thread
Author
Thread    Post A Reply
m2j
Music Addict



Registered: Nov 2004
Location: Toronto, Canada

quote:
Originally posted by Cosmic Fur
^ This set is the sole reason why the "fuck House" from my sig is gone.


awesome.

no one can deny that EM. its one of fav. house EMs.


___________________
-M2J

For set downloads, event details and radio schedule visit:
http://www.vitalevents.net/

Old Post Apr-17-2006 19:08  Canada
Click Here to See the Profile for m2j Click here to Send m2j a Private Message Visit m2j's homepage! Add m2j to your buddy list Report this Post Reply w/Quote Edit/Delete Message
sm0og1er
tranceaddict in training



Registered: Oct 2005
Location: Brooklyn, Inited States Of Ameirca
Talking

Tiestos 6hour set was a blast, really good set!

Old Post Apr-17-2006 20:17  Latvia
Click Here to See the Profile for sm0og1er Click here to Send sm0og1er a Private Message Add sm0og1er to your buddy list Report this Post Reply w/Quote Edit/Delete Message
SAGE2635
Suspended User



Registered: Nov 2001
Location: UWSAstudioCambridge
Re: Above

quote:
Originally posted by xeonpl
Can you upload Above & Beyond ; )
Because Maximal is really good ; ]
http://www.tranceaddict.com/forums/...rra#post5962388

the set's good but the quality is bad. I hope someone recorded in a higher quality

Old Post Apr-17-2006 20:58 
Click Here to See the Profile for SAGE2635 Click here to Send SAGE2635 a Private Message Add SAGE2635 to your buddy list Report this Post Reply w/Quote Edit/Delete Message
xeonpl
tranceaddict



Registered: Jan 2006
Location: Ustka, Poland
Ferry corsten - In Sessions (Maximafm) 03-19-06

Thx SAGE2635

http://storeandserve.com/download/1...-19-06.mp3.html

Dont have tracklist

Last edited by xeonpl on Apr-17-2006 at 21:22

Old Post Apr-17-2006 21:16  Poland
Click Here to See the Profile for xeonpl Click here to Send xeonpl a Private Message Add xeonpl to your buddy list Report this Post Reply w/Quote Edit/Delete Message
xeonpl
tranceaddict



Registered: Jan 2006
Location: Ustka, Poland
Ferry Corsten - Intensivstation 11-02-06

1. Matt Darey feat. Izzy Eternity (Probspot Remix)
2. The cranberries. Shattered (Arctic Quest Bootleg Remix)
3. Ferry Corsten. Fire (Flashover Remix)
4. Airbase. Escape
5. Mike Koglin. 1:1.618 (Pulser Remix)
6. Leon Blier. My Precious
7. Istmo. Promo
8. Angelstyle. Oceandream
9. Frost & Maron. Mute your Mind
10.Gavin Mitchell. Resurection

http://www.zshare.net/audio/01-ferr...06-oma-mp3.html

Old Post Apr-17-2006 21:28  Poland
Click Here to See the Profile for xeonpl Click here to Send xeonpl a Private Message Add xeonpl to your buddy list Report this Post Reply w/Quote Edit/Delete Message
Cosmic Fur
Debbie Downer



Registered: Jan 2005
Location: Mississauga, Canada

quote:
Originally posted by m2j
awesome.

No one can deny that EM. its one of fav. house EMs.


Anyone got the cue for it? I'll prolly make it in a couple of days if no one else will.


___________________
I'm the trouble starter, fuckin' instigator.
I'm the fear-addicted, danger illustrated.

Old Post Apr-17-2006 23:11  Canada
Click Here to See the Profile for Cosmic Fur Click here to Send Cosmic Fur a Private Message Visit Cosmic Fur's homepage! Add Cosmic Fur to your buddy list Report this Post Reply w/Quote Edit/Delete Message
King Luis
The Almighty King of TA!!



Registered: Feb 2006
Location: Oakville

Guy Ornadel
http://www.ornadel.com/dj/audio/Guy_03Feb2006.mp3
from his website and worth the listen.


___________________

Old Post Apr-17-2006 23:48  Portugal
Click Here to See the Profile for King Luis Click here to Send King Luis a Private Message Add King Luis to your buddy list Report this Post Reply w/Quote Edit/Delete Message
m2j
Music Addict



Registered: Nov 2004
Location: Toronto, Canada

quote:
Originally posted by Cosmic Fur
Anyone got the cue for it? I'll prolly make it in a couple of days if no one else will.


i was gonna make one, but I've just been way too busy crammin for exams to do it.

if you could post the cue here when u make it, it'd be awesome.
thanks dude.


___________________
-M2J

For set downloads, event details and radio schedule visit:
http://www.vitalevents.net/

Old Post Apr-18-2006 02:18  Canada
Click Here to See the Profile for m2j Click here to Send m2j a Private Message Visit m2j's homepage! Add m2j to your buddy list Report this Post Reply w/Quote Edit/Delete Message
Gillis maximus
Supreme tranceaddict



Registered: Sep 2005
Location: G-Vegas

Paul Van Dyk - Radio Oslo - 03-20-2003

http://www.filefactory.com/?8e6fb3

Radio Oslo (20-03-2003)
-
01. Aquaculture - Understatement
02. Schatrax - Misspent Years (Silicon Soul's Darkroom Dub)
03. Camouflage - Me & You (Humate Remix)
04. Kyau vs Albert - Velvet Morning (Mirco De Govia Remix)
05. Hydra - Affinity
06. Oliver Lieb pres. Smoked - Metropolis (Eric Prydz Remix)
07. Roc Project feat. Tina Arena - Never (Filterheadz Remix)
08. Bryan Zentz - D-Clash
09. Darren Tate vs. Mike Koglin - Now Is The Time
10. Coast 2 Coast - Searching

Old Post Apr-18-2006 02:58  United States
Click Here to See the Profile for Gillis maximus Click here to Send Gillis maximus a Private Message Add Gillis maximus to your buddy list Report this Post Reply w/Quote Edit/Delete Message
epdarks
mnb4fl



Registered: Sep 2005
Location: mpls mn

Thanks for the PvD set, never heard of it. Do you have any more rare PvD?

Also.... anyone.... Alphazone?

Old Post Apr-18-2006 03:24  United States
Click Here to See the Profile for epdarks Click here to Send epdarks a Private Message Visit epdarks's homepage! Add epdarks to your buddy list Report this Post Reply w/Quote Edit/Delete Message
epdarks
mnb4fl



Registered: Sep 2005
Location: mpls mn

Create "Spring" 18-03-2006 @ The Power Zone, Amsterdam

Phynn
http://www.megaupload.com/?d=NBMW36A3

Giuseppe Ottaviani (NU NRG)
http://www.megaupload.com/?d=8D659Z76

Misja Helsloot
http://www.megaupload.com/?d=TENNF8E7

http://www.create-events.nl/

Old Post Apr-18-2006 03:26  United States
Click Here to See the Profile for epdarks Click here to Send epdarks a Private Message Visit epdarks's homepage! Add epdarks to your buddy list Report this Post Reply w/Quote Edit/Delete Message
m2j
Music Addict



Registered: Nov 2004
Location: Toronto, Canada

Here's a listing of all my uploads so far. I think most of the links are still working, but if there is one there that you want that has expired, lemme know and i'll reupload it.

Enjoy.


Steve Angello & Sebastian Ingrosso
Essential Mix 2005-09-25
Genre: House

Download


Track List:
-----------
01. Ian Carey & Mochico feat. Miss Bunty - 'Say What You Want' (Ian Carey Dub Mix) (Nero Recordings)
02. Angello & Ingrosso- '82-83' (Superstar)
03. Philippe B- 'Can U Feel It' (Cyber Production)
04. Steve Angello- 'Chord' (Refune)
05. Who's Who- 'Not So Dirty' (Size)
06. Ernesto & Bastian- 'Darkside Of Th Moon' (Axwell & Sebastian Ingrosso Remod) (Nebula)
07. Booka Shade- 'Mandarine Girl' (Get Physical)
08. Style Of Eye- 'Unknown' (Classic)
09. Digitalism- 'The Count' (Kitsune)
10. Buy Now- 'For Sale' (La'Mode)
11. Morillo,Romero & Nunez- 'Dancin' (Angello & Ingrosso's Metallica Is Dancin Booty) (White)
12. Tiefschwarz feat. Chikinki- 'Wait & See' (Alter Ego Remix) (Fine)
13. Mad 8- 'Work This Pussy' (JD's Booty Mix) (White)
14. Buy Now- 'Sold' (La'Mode)
15. MBG & SDS- 'New Jack' (Steve Angello Remix) (Size X)
16. Royksopp- '49 Percent' (Angello & Ingrosso Remix) (Wall Of Sound)
17. Steve Angello- 'Teasing Mr.Charlie' (Size)
18. Steve Lawler- 'That Sound' (Angello & Ingrosso Remix) (Joia)
19. Chemical Brothers- 'Hey Girl Hey Boy' (Virgin)
20. Eurythmics- 'Sweet Dreams' (Steve Angello's Bootleg Mix) (Sony/BMG)
21. Daft Punk- 'Alive' (Virgin)


Nu:Tone
Live @ Drum n Bogaloo - 2005-10-15
Genre: Drum & Bass (Liquid)

Download


Track List:
-----------
01. D-Kay - Serenade - Brigand
02. Logistics - West Country - Hospital
03. Nu:Tone - Heaven Sent - Hospital
04. Calibre - Is It You - Signature
05. Hotbox - Black Queen - BrandNu
06. Marcus Intalex - Bridge The Gap - Soul:R
07. Logistics - Bounce - Dub
08. Nu:Tone - Seven Years (Matrix Rmx) - Hospital
09. Cymande - The Message (Ed Rush & Optical Rmx) - White [00:23:30]
10. Quantic - Perception (Nu:Tone Rmx) - Tru Thoughts
11. Nu:Tone-vs-Syncopix - Untitled - Hospital
12. Commix - Unknown - Dub
13. Calibre - Go Back To Go Forward - Signature
14. D Bridge & Vegas - True Romance VIP - Dub
15. Commix - Five Reasons (Syncopix Rmx) - BrandNu
16. High Contrast - Racing Green - Hospital
17. Calibre - Water Carrier - Signature
18. Lenny Fontana - Spread Love (Nu:Tone Rmx) - Hospital
19. High Contrast - What We Do - The Contrast
20. London Elektricity - Remember The Future - Hospital
21. Nu:Tone - 3 Bags Full - Hospital
22. Nu:Tone & Jenna G – Quick Love (Zinc Rmx) - Bingo
23. Logistics - Together - Hospital
24. Dj Zinc - Flim - (Calibre Vocal Rmx) - Bingo
25. Commix - Satellite Song - Metalheadz
26. Calibre - Consulate Charm - Signature
27. DKay + DJ Lee - Anyone Anywhere - Dub
28. Utah Jazz - Done + Dusted - Liquid V
29. Calibre - Drop It Down - Signature
30. Logistics - Take Me to the Bridge - Dub
31. Nu:Tone - The Boy Who Lost His Smile - Dub
32. Nu:Tone - Strange Encounter - Hospital
33. Shapeshifter - Long White Cloud (Nu:Tone rmx) - Dub
34. Commix - Whatever You Want - BrandNu Dub
35. Logistics - Connect 4 - Dub
36. Version - The Hustle - Dub
37. Logistics - Winter Blues - Dubs

Cue:

code:
FILE "2005-10-15 - Nu-Tone - Drum n Bogaloo.mp3" MP3 TRACK 01 AUDIO TITLE "D-Kay - Serenade - Brigand" INDEX 01 00:00:00 TRACK 02 AUDIO TITLE "Logistics - West Country - Hospital" INDEX 01 03:41:00 TRACK 03 AUDIO TITLE "Nu:Tone - Heaven Sent - Hospital" INDEX 01 05:57:00 TRACK 04 AUDIO TITLE "Calibre - Is It You - Signature" INDEX 01 08:22:00 TRACK 05 AUDIO TITLE "Hotbox - Black Queen - BrandNu" INDEX 01 11:49:00 TRACK 06 AUDIO TITLE "Marcus Intalex - Bridge The Gap - Soul:R" INDEX 01 13:22:00 TRACK 07 AUDIO TITLE "Logistics - Bounce - Dub" INDEX 01 18:08:00 TRACK 08 AUDIO TITLE "Nu:Tone - Seven Years (Matrix Rmx) - Hospital" INDEX 01 21:21:00 TRACK 09 AUDIO TITLE "Cymande - The Message (Ed Rush & Optical Rmx)" INDEX 01 24:08:00 TRACK 10 AUDIO TITLE "Quantic - Perception (Nu:Tone Rmx) - Tru Thoughts" INDEX 01 26:59:00 TRACK 11 AUDIO TITLE "Nu:Tone-vs-Syncopix - Untitled - Hospital" INDEX 01 30:01:50 TRACK 12 AUDIO TITLE "Commix - Unknown - Dub" INDEX 01 34:08:00 TRACK 13 AUDIO TITLE "Calibre - Go Back To Go Forward - Signature" INDEX 01 37:57:00 TRACK 14 AUDIO TITLE "D Bridge & Vegas - True Romance VIP - Dub" INDEX 01 40:58:00 TRACK 15 AUDIO TITLE "Commix - Five Reasons (Syncopix Rmx) - BrandNu" INDEX 01 45:04:00 TRACK 16 AUDIO TITLE "High Contrast - Racing Green - Hospital" INDEX 01 46:42:00 TRACK 17 AUDIO TITLE "Calibre - Water Carrier - Signature" INDEX 01 49:49:10 TRACK 18 AUDIO TITLE "Lenny Fontana - Spread Love (Nu:Tone Rmx) - Hospital" INDEX 01 51:22:45 TRACK 19 AUDIO TITLE "High Contrast - What We Do - The Contrast" INDEX 01 53:47:00 TRACK 20 AUDIO TITLE "London Elektricity - Remember The Future - Hospital" INDEX 01 56:44:00 TRACK 21 AUDIO TITLE "Nu:Tone - 3 Bags Full - Hospital" INDEX 01 58:48:00 TRACK 22 AUDIO TITLE "Nu:Tone & Jenna G – Quick Love (Zinc Rmx) - Bingo" INDEX 01 60:43:00 TRACK 23 AUDIO TITLE "Logistics - Together - Hospital" INDEX 01 63:20:00 TRACK 24 AUDIO TITLE "Dj Zinc - Flim - (Calibre Vocal Rmx) - Bingo" INDEX 01 67:19:50 TRACK 25 AUDIO TITLE "Commix - Satellite Song - Metalheadz" INDEX 01 69:03:20 TRACK 26 AUDIO TITLE "Calibre - Consulate Charm - Signature" INDEX 01 70:49:40 TRACK 27 AUDIO TITLE "DKay + DJ Lee - Anyone Anywhere - Dub" INDEX 01 74:29:00 TRACK 28 AUDIO TITLE "Utah Jazz - Done + Dusted - Liquid V" INDEX 01 77:09:00 TRACK 29 AUDIO TITLE "Calibre - Drop It Down - Signature" INDEX 01 80:55:00 TRACK 30 AUDIO TITLE "Logistics - Take Me to the Bridge - Dub" INDEX 01 83:03:00 TRACK 31 AUDIO TITLE "Nu:Tone - The Boy Who Lost His Smile - Dub" INDEX 01 85:57:40 TRACK 32 AUDIO TITLE "Nu:Tone - Strange Encounter - Hospital" INDEX 01 87:45:00 TRACK 33 AUDIO TITLE "Shapeshifter - Long White Cloud (Nu:Tone rmx) - Dub" INDEX 01 91:54:00 TRACK 34 AUDIO TITLE "Commix - Whatever You Want - BrandNu Dub" INDEX 01 95:31:00 TRACK 35 AUDIO TITLE "Logistics - Connect 4 - Dub" INDEX 01 97:53:00 TRACK 36 AUDIO TITLE "Version - The Hustle - Dub" INDEX 01 100:29:00 TRACK 37 AUDIO TITLE "Logistics - Winter Blues - Dubs " INDEX 01 103:52:00



Alphazone
Live on Transcend II - 17.01.2004
Genre: Uplifting/Hard Trance

Download


Track List:
-----------
01. Intro
02. Signum - Second Wave
03. Next Exit - Rise of Nations (Mat Silver Vs. Tony Burt Remix)
04. Blank & Jones - A Forest (Ron van den Beuken Remix)
05. Aalto - Rush (Original Mix)
06. Celiyon - Immortal (Alphazone Mix)
07. Evergray - Symmetry (Vorne & Savietto Mix)
08. Flutlicht - The Fall
09. Dumonde - Human (Lee Haslam Remix)
10. Saltwater - Strange (Alphazone Mix)
11. Ian van Dahl - Try (Alphazone Remix)
12. Ayu - M (Above and Beyond Vocal Dub Mix)
13. Ampire - Singularity
14. Ralph Novell - Wrong Love (Alphazone Remix)
15. Plastic Boy - Live Another Life
16. The Freak - The Sound, The Melody (Flutlicht Remix)
17. Ace's Delight - Mental Theme (Ace Da Brain's Hell On Earth Mix)
18. Nebulus - Destination Paradise
19. Alphazone - Revelation (Orignal Mix)


Freq Nasty
Loveparade SF 2005
Genre: Breaks

Download



Freq Nasty - Live @ Kiss100 Breakbeat Allstarz
Genre: Breaks

Download



The Crystal Method
Community Service @ Indie 103-1 Radio 03-11-2006
[color=orange]Genre: Breaks


Download (Part1)
Download (Part2)


The Crystal Method - Name of the Game [V2]
Born Tricky & Mr. Frisk - Let Me Out (Hyper Remix) [White]
Coburn - Give Me Love [Frontier Records]
The Crystal Method - Starting Over (Elite Force Remix)
Dizzee Rapid - Stand Up Fool (Dub) [White]
Peter Paul - More Tekila (Slyde Mix) [ibreaks]
Meat Katie & Elite Force - Divine [Adrift Records]
Groove Diggerz - Neon Funk
Airport - Shadows Fly On the Motorway [White]
Plump DJ's - Black Jack [Finger Lickin]
B-Movie - Nowhere Girl (Adam Freeland Remix) [Rhino Records]
Paradox 3000 - Party Alarm [Punk Funx]
Rogue Element - Breaking Point [Exceptional Records]
Hyper - Dirty Mind
Dylan Rhymes - Hope For Us Yet [Kingsize]
[/size]

Scumfrog
Essential Mix 2003-04-27
Genre: House

Download


Track List:
-----------
The Scumfrog - 'Revolution Intro' (Effin)
Quentin Elias - 'Always The Last (Lee Cabrera Mix)' (Illustrious)
Seven Saturdays - 'Satisfy Me (Instrumental)' (Dipiu Music)
Fatboy Slim - 'Drop The Hate (Acapella)' (Skint)
Monica - 'I'm So Gone (The Scumfrog Dub)' (J Records)
Rock Scissors Paper - 'Hope' (Shinichi)
4 Tune 500 - 'Dancing In The Dark' (Black Gold Records)
Mad Dot Gone - 'Wicked n Wild (Wicked Mix)' (White Label)
Roblong - 'Bass Goes On' (What Goes Around)
The Scumfrog - 'Music Revolution' (Effin / Positiva)
Nile - 'To Sir With Love (Departure Lounge Mix)' (White Label)
Chris Micali - 'Chant' (Blueprint Recordings)
Cevin Fisher - 'Nikko Sun (Acapella)' (Nite Grooves)
Climaxx Rated - 'It's You' (Bee's Nee's)
Andrea Doria - 'Bucci Bag' (Southern Fried Records)
The Scumfrog - 'Deep Sleep Dub' (Effin)
Planet Funk - 'The Switch (The Scumfrog's Miami Dub)'(Illustrious)
Static Revenger - 'Long Time' (MS Records)
Pure Orange - 'Feel Alive (Scumfrog Remix)' (Positiva)
Klonhertz - 'Impossible' (White Label)
Double Dee - 'Shining (Scumfrog Remix)' (Positiva)
DJ Disciple - 'Apache' (White Label)
Jack Prongo - 'Good Boy' (Psst)
Dutch feat. Crystal Waters - 'My Time (Scumfrog Dub Mix)' (Effin / Illustrious)
Cevin Fisher - 'Nikko Sun' (Nite Grooves)


Scratch Perverts
Essential Mix 2004-08-22
Genre: Turntablism/HipHop/DnB

Download


DJ Plus One - 'Booty Cruncher Instrumental' (SPR)
LL Cool J - 'Headsprung' (DefJam)
Dr. Dre - 'Deep Cover' (Interscope)
Jadakiss - 'Kiss Of Death' (Universal)
Lumidee - 'Uh Oh' (Universal)
Dizzie Rascal - 'Fix Up, Look Sharp' (XL)
Marley Marl - 'Marley Marl Scratch' (White)
Nas - 'Thiefs Theme' (Columbia)
Ghostface - 'Rub' (DefJam)
Jay Z - '99 Problems' (Rocafella)
213 - 'Groupie Love' (TVT)
Twista - 'Twista' (White)
Scratch Perverts - 'Time' (SPR)
Foreign Beggars - 'Hold On' (Dented)
DJ Plus One - Turn Around [instrumental] (SPR)
Dynamite MC feat. Plus One - 'Industry Pt. 2' (Strong)
Brandy - 'I Tried' (East West)
Obi Trice - 'The Set Up' (Shady Records)
Lil' Jon - 'Get Low' (TVT)
Busta Rhymes - 'Make It Clap' (J-Records)
Norega - 'Full Mode' (DefJam)
Ja Rule - 'Clap Back' (White)
J-Kwon - 'Tipsy' (50 50 Def)
Lil' Kim - 'The Jump Off' (Atlantic)
Timbaland & Magoo - 'Cop That Sh*t' (Universal)
B5 2000 - 'Unknown' (White)
ET Boogie - 'Unknown' (Sunny View)
Esther Williams - 'Last Night Changed It All' (White)
Beastie Boys - 'Check It Out' (Grand Royal)
Foxy Brown - 'The Letter M' (DefJam)
Unknown - 'I'm A Man' (White)
Method Man - 'Method Man' (Loud)
Unknown - 'Unknown' (White)
Nina Sky - 'Move Your Body' (J-Time)
Shawna - 'Share That Sh*t' (DefJam)
Dead Prez - 'Hell Yeah' (Loud)
Dr. Dre & Ice Cube - 'Natural Born Killaz (Death Row Records)
Bone Crusher - 'Never Scared' (50 50 Def)
Dead Prez - 'Hip Hop' (Loud)
Blak Twang - 'So Rotten' (Bad Magic)
The Lady Of Rage - 'Afro Puff's' (Death Row Records)
The 45 Kings - '900 Number' (Tuff City)
Eric Sermon - 'Feel It' (Universal)
Mobb Deep - 'Got It Twisted' (Jive)
Method Man - 'What's Happening' (DefJam)
Busta Rhymes - 'As I Come Back' (White)
Jay Z - 'P.S.A. [Remix] (Roc-a-Fella)
Scatch Perverts - 'Come Get It' (SPR)
Egyption Lover - 'Dance' (Egyptian Empire)
Jon Spencer Blues Explosion - 'Bell Bottom' (Matador)
Paul Weller - 'Cosmos [Lynch Mob Mix] (Go Discs)
Jay Z - 'Dirt of Your Shoulder' (Roc-a-Fella)
Timbaland - 'They Ain't Ready' (Interscope)
Bubba Sparx - 'Ugly' (Beat Club)
Justin Timberlake - 'Cry Me A River' (Jive)
Nasty Nas - 'Halftime' (Columbia)
GZA - '4th Chamber' (DGC)
Scratch Perverts - 'Come Get It' [Remix] (SPR)
Big L - 'Devil's Son' (Columbia)
Dizzie Rascal - 'Jus A Rascal' (XL)
Diz - 'Purple Pills' (Shady)
Metallica - 'Frantic' (Vertigo)
Skinny Man - 'It's Over' (White)
NERD - 'Rockstar' (Star Trak/Virgin)
Red Hot Chilli Peppers - 'Californication' (Warner)
Ashad & Klashnikoff - 'The Message' (White)
NERD - 'Lapdance' (Virgin)
Freeway - 'What We Do' (Roc-a-Fella)
Clipse - 'Grindin' (Star Trak)
Radiohead - 'National Anthem' (Parlophone)
Squarepusher - 'Go Plastic' (Warp)
Metallica - 'Wherever I May Roam' (Vertigo)
Scratch Perverts - 'Stand By' (SPR)
Kelis - 'Milkshake' [Remix] (Arista)
Kelis - 'Milkshake' (Arista)
Missy Elliot - 'Pass The Dutch' (Warner)
White Stripes - 'Seven Nation Army' (XL)
Chemical Brothers - 'Come With Us' (Virgin)
Blackicious - 'Alphabet Aerobics' (Quannum)
Nirvana - 'Love Buzz' (DGC)
Ret Hot Chilli Peppers - 'Under The Bridge' (Warner)
Ret Hot Chilli Peppers - 'Blood Sugar Sex Magik' (Warner)
LL Cool J - 'It Gets No Rougher' (DefJam)
Prodigy - 'Fire Starter' (XL)
Squarepusher - 'My Red Hot Car' (Warp)
Ian Brown - 'F.E.A.R.' (Polydor)
Origin Unknown - 'Valley Of The Shadows' (RAM)
Bad Company - 'The Nine' (Bad Company)
High Contrast - 'Restoration' (White)
Calibre - 'Drop It Down' (Creative Source)
Zinc - 'Ready Or Not 2003' (White)
Fresh - 'Hooded' (RAM)
Nightbreed - 'Pack Of Wolves' [Remix] (RAM)
Krust - 'Follow The Vision' (Full Cycle)
Adam F & J-Magik - 'Metrosound' (Kaos)
Pendulum - 'Vault' (31 Records)
Fresh - 'Floodlight' (Dogs On Acid)
Andy C - 'Body Rock' (RAM)
Dilinja - 'Crunch' (Valve)
Roni Size - 'Trouble' (Full Cycle)
Pendulum - 'Another Planet' (Kaos)
Unknown - 'You Disgust Me' (Black Widow/Spider)
Ram Trilogy - 'Capture The Flag' (RAM)
Friction - 'Bogey Man' (True Playaz)
Ed Rush & Optical ft. Scratch Perverts - 'Get Ill' (Virus)
Dillinja - 'Twist Em Out' (Renegade Records)
Dillinja - 'Grimey (V Records)
Calibre - 'Mr. Majestic' (Creative Source)


Jose Padilla
Essential Mix - 1997-07-27
Genre: Chillout/Lounge

Download


Gino Vanelli - "Storm At Sun Up" (A & M)
John Martyn - "Sunshine's Better" (Go! Discs)
Invisible Man - "Amor Boricua" (Massive Sounds)
Kid Loco - "The Bootie Goers" (Yellow)
Marc Moulin - "Le Beau Galop" (Counterpoint)
Fila Brazillia - "Place De La Concorde" (Pork)
Alex Cortiz - "Con Bass" (Unwrap Me)
Jose Padilla - "Now For Us" (Manifesto)
Euphony - "Sound Jungle" (Moonshine)
Afterlife - "5th And Anenida" (white label)
Ah Mon Tresor - "Imagine" (Elektrolux)
Jose Padilla - "Colega" (Manifesto)
Karen Ramirez - "Troubled Girl" (Manifesto)
Jose Padilla - "Bosa Bosa" (Manifesto)
UFO - "Dubs" (Talkin' Loud)
Wasis Diop - "No Sant" (Manifesto)
Jose Padilla - "Alive" (Manifesto)
Tony Elvis - "String For Life" (Mindfood)
Criminal Element Orchestra - "It's The Time" (Minimal)
Paul Mac - "Outer Space E.P." (Fracture)
M.A.P. - "For You" (Dust To Dust)
Sixteen Souls - "On My Mind" (Glasgow Underground)
DJ Fresh - "Digital Soul" (white label)


King Unique
In The Mix (N-Joy)-03-24-2006
Genre: House

Download


1 Planets Intro - KING UNIQUE
2 A Dream - CUT COPY
3 Dunky Frummer -SUBJECT
4 16 Lovers (Radioslave) - CAGEDBABY
5 Don`t You Want (Tiga) - ZDAR
6 Friday (Trentemöller) - FRED EVERYTHING
7 Ziq Zaq -MODESELEKTOR
8 Everything is under Control (Solid Groove) - COLDCUT
9 Want 2 Need 2 (Trentemöller) - SHARON PHILLIPS
10 Sicknagood - SOLID GROOVE
11 You`re all over my Head - JESSE ROSE
12 Knockout - CIREZ D
13 Orbital Dance Machine (T.Andersson) - TRICK + CUBIK
14 Pop it Bad - HUGGATRON
15 Wait and See (Alter Ego) - TIEFSCHWARZ
16 Curfew Time (Accapella) - KING UNIQUE
17 Hot in the Kitchen - MIDNIGHT MIKE
18 Beat The Bush - ALTER EGO
19 Wall (Mylo Mix) - THE EGG
20 Echo - LUKE DZIERZEK


Piet Blank
N-Joy Lounge 05-03-2006
Genre: Lounge

Download


Title - Artist

Bionics - Intelligent Jazz
Sound Of Samba - Victor Davies
Entre Dos Aguas - Rauul Orellana
Winter - Bebel Gilberto
Bosaxi - Jose Padilla
Bodytalk - Imagination
Black Beans & Castro Queens - Sven Van Hees
Pieces Of A Dream - Pieces Of A Dream
For The Love Of You - Candy Dulfer
Passa - Sabrina Malheiros
Rio Loungin' - Blank & Jones



Coldcut
Essential Mix 29th January 2006
Genre: Turntablism/HipHop/DnB

Download


Track List:
-----------
Adam F 'Unknown' (White Label)
Will I Am 'Who Am I?' (White Label)
DJ Vadim 'The Terrorist' (Ninjatune)
Supercat 'Don Dada' (Wild Apache)
Kenny Dope 'Don dada' (Big Beat)
Lou Reed 'Walk On The Wild Side' (RCA)
Tribe Called Quest 'Can I Kick It?' (Jive)
Mr Scruff 'Trouser Jazz' (Ninjatune)
The Party Party.com 'Imagine' (Mp3)
Sweet Tee 'It's My Beat' (Edel)
KRS ONE 'Dope Beat' (Big Daddy)
AC/DC 'Back In Black' ( Atlantic )
Harry Hall 'Teddy Bears' Picnic' (White Label)
KRS ONE 'Sound Of Da Police' (Jive)
Lumidee 'Never Leave' (Universal)
Eric B & Rakim 'I No U Got Soul' ( Island )
Eric B & Rakim 'Paid In Full' ( Island )
Zebra Breaks 'Unknown' (White Label)
ColdCut 'Smoke This One' (Big Life)
The Soul Searchers 'Ashley's Roachclip' (Alpha Omega)
Playschool 'Bang On A Drum' (BBC)
Disco 3 'Stick Em' (White Label)
Cutty Ranks 'The Stopper' (Fashion)
Slim 'It's In The Mix' (Epic)
Method Man 'Release Yo Delf (Prodigy Remix)'
Saul Williams 'Not In Our Name' (Ninjatune)
Rare Earth 'I Am Losing You' (EMI)
Jeremy Stieg 'Howlin' For July' (Blue Note)
Beastie Boys 'Sure Shot' (Capitol)
The Majesticons 'Suburb Party' (Big Dada)
Tickle 3 'I Got What U Need' (White Label)
DJ Z Trip 'Listen To The DJ' ( Hollywood )
The Invada 'Showtime' (White Label)
J Roc 'Dirty Fingered B-Boy' (Ninjatune)
Part 2 'One Of Dem Days' (Big Dada)
Yummy 'It's Good To You' (White Label)
Harmonic 33 'The Shape Shifter' (Warp)
Pizzy Yelliot 'Could You Be Loved (Disco)'
Harmonic 33 'Funky Duck' (Warp)
ColdCut 'Mr Nicholls' (Ninjatune)
McKay 'Takin Over' (White Label)
Dave & Ansel Collins 'Double Barrel' (Trojan)
Philorene 'Bola' (Organico)
Antipop Consortium '38303' (Antipop)
Ganja Crew 'Super Sharp Shooter' (Ganja)
Wayne Smith 'Sleng Teng' (Greensleeves)
Junior Reid 'One Blood' (Big Life)
Krust 'Warhead' (Full Cycle)
Slymoo 'Police & Thieves' (Arista)
Coldcut 'Everything's Under Control' (Ninjatune)
Coldcut 'Revolution' (Ninjatune)
Cane 'Grand Old Party Mix' (White Label)
Sunra Arkestra 'Yahyahs Resonance FM Rap' (Continue To Explore)
Baba Brooks 'Twilight Zone' (Proper)
Sandra Melody and Diplo 'Newsflash' (Big Dada)
Temperance 7 'Charley My Boy' ( Lake )
Crazy Titch vs Coldcut '1 hr To Make This' (White Label)
Lee Sratch Perry 'Cloak And Dagger' (BE)
Franz Ferdinand 'This Fire' (Domino)
King Tubby 'Base Dub' (Music Club)
Alan Watts 'Listen' (White Label)
Bjork 'Hidden Place' (One Little Indian)
The Congos 'Open Up The Gates Of Zion ' (Go-Feet)
King Tubbys 'Confusion Dub' (Snapper)
Son Kite 'Other Side' (Tribal Tribe)
Iggy Pop & Stooges 'Down On The Street' (Elektra)




Timo Maas
Essential Mix 2004.11.21
Genre: House

Download


Track List:
-----------
Circulation - 'Graphite' (White)
Humate - 'Breed' (Terrace)
Roman Flugel - 'Gelits Noes' (Cocoon)
H-Man - 'Manga' (Giant Wheel)
Jon Carter - 'Dirty Old Man' (Saville Row)
Da Fresh - 'The Dirty Dozen' (Missile)
Greg Churchill - 'Infused Trash' (Underwater)
Chocolate Puma - 'A Star Is Born' (White)
B+B - 'Can't Get Enough' (White)
TV = The Devil 'Gisli' [Radio Slave Remix] (EMI)
Mateo Murphy - 'Meltdown' (Underwater)
Remy & Roland - 'Fearless Til Ya Drop' (Electonic Elements)
Da Fresh 'Dope Me' [Unknown Remix] (Zebra)
Unknown - 'Left Foot' (White)
Unknown - 'Bush Lied' (White)
Steve Angello - 'Tribal Inc.' (Tum Bata)
General Levi - 'House Of Funk' (White)
Tom Real - 'Just Bash Out' (Functional Breaks)
Moby 'Go 2004' (White)
Placebo - '20 Years' [Timo Maas Remix] (Virgin)



Kyau vs Albert
Euphonic Sessions on ETN.fm 2006-02-02
Genre: Trance

Download


Track List:
-----------
Coldplay - Talk (Junkie XL Remix)
Gabriel & Dresden feat. Molly - Tracking Treasure Down
ID
Sun Decade - Have It All (Thomas Penton Dub)
Morrison - Do Your Thing (Dub Mix)
Kyau vs Albert - Kiksu
ID
Above & Beyond - Alone Tonight
Sunny Lax - P.U.M.A.
Kyau vs Albert - Walk Down
Nu Nrg - Casino (Stoneface & Terminal Remix)


Cue:
----
code:
TRACK 01 AUDIO TITLE "Coldplay - Talk (Junkie XL Remix)" INDEX 01 00:00:00 TRACK 02 AUDIO TITLE "Gabriel & Dresden feat. Molly - Tracking Treasure Down" INDEX 01 00:00:00 TRACK 03 AUDIO TITLE "ID" INDEX 01 13:30:00 TRACK 04 AUDIO TITLE "Sun Decade - Have It All (Thomas Penton Dub)" INDEX 01 18:43:00 TRACK 05 AUDIO TITLE "Morrison - Do Your Thing (Dub Mix)" INDEX 01 23:24:00 TRACK 06 AUDIO TITLE "Kyau vs Albert - Kiksu" INDEX 01 27:57:50 TRACK 07 AUDIO TITLE "ID" INDEX 01 32:58:00 TRACK 08 AUDIO TITLE "Above & Beyond - Alone Tonight" INDEX 01 39:36:40 TRACK 09 AUDIO TITLE "Sunny Lax - P.U.M.A." INDEX 01 44:26:00 TRACK 10 AUDIO TITLE "Kyau vs Albert - Walk Down" INDEX 01 50:41:00 TRACK 11 AUDIO TITLE "Nu Nrg - Casino (Stoneface & Terminal Remix)" INDEX 01 56:22:00




DJ Icey - Automatic Static 16 - 02.04.2006
Genre: Breaks

Download


1. MyLowDownDirty- Soul of Man (Finger Lickin')
2. False Awakening- Lifecycle (LondonBreakz)
3. Big Bad Bruiser (Diveretd Remix)-Groovediggerz (Even Flow)
4. Bring it on Down-Aquasky & Drumattic Twins (Passenger)
5. Movement 2 Escape (Viro & Euphorik mix)-Superfly Jeff / Shakka
6. Your Wrong feat Burke One (Skoolof Thought Mix)-Superstyle Deluxe (Supercharged)
7. Fat Cats (Diverted remix) - No Hands - (Diverted Traffic)
8. Good to Go (DJ Icey Remix)- General Midi (Distict'ive Records)
9. Sunblock- Olav Basoski (Rootz)
10. Let's Get Dirty- NAPT
11. Funky Planet (White Label)
12. Alley Dweller (VIP Mix)- Lucas Hart (Pure Phunk)




Stanton Warriors
Essential Mix 2004-07-24
Genre: Breaks

Download


Track List:
----------
Stanton Warriors - Slanty (dub mix) - White
Metro Area - Muira (Stanton booty mix) - White
Maddox - Hypnotic Funk - Mantra Breaks
Freestylers - Push Up (Plump Dj's rmx) - Against the Grain
Stanton Warriors - Adventures in Success Dub feat Ludicris - White
Stanton Warriors - Head Rock - White
Mousse T - Is it because I'm cool (Shakedown dub) - Free 2 air
Dylan Ryhmes - The Way (Evil 9 rmx) - Lot49
Murk - Fired up (Breaks mix) - White
Funky green frogs - White
Jerk it - Punks
Dancing in the Park - Punks
Stanton Warriors - Hope Time - White
Propella Heads Take California (Smithmonger rmx) - White
Spectrum - Kind of New (Breaks Mix) - White
Goldie - Innercity Life (Breaks Booty Mix) - White
Stanton Warriors - When I Wake (club mix) - White
Plump Dj's - Soul Vibrates - Finger Licking
Drumattic Twins - Rock Steady - Finger Licking
Freaking Out - White Label
Dj Zinc - Go DJ rmx - Bingo
Stanton Warriors - Who Are The Warriors - White


Calibre & MC DRS
Breeze Block 01/03/2005
Genre: Drum & Bass

Download


Track List:
-----------
Calibre- 'Maybe Sometime' (Signature)
Raf & Ill Logic- 'Shoot Out' (31)
Calibre- 'Second Sun' (Signature)
Calibre Feat. Lariman- 'Consulate Charm' (Signature)
ST CAl- 'Henshaw Dub' (Solar)
Tactile- 'Caravan' (White)
Calibre feat. MC Crow- 'Kiva' (Signature)
Mist. feat. MC Tweed- 'Untitled' (White)
Visionary- 'No. 9 Dub' (Revolver)
13& God- 'L'Atlas Flexible/Von Gradleute (Hrvatski Remix)' (Alien Transistor)
One Self- 'Be Your Own' (Ninja Tune)
Nathan Fake- 'Dinamo' (Traum Schallplatten)



Yoji Biomehanika
Essential Mix 2005.04.03
Genre: Hard Trance

Download


Track List:
-----------
Public Domain - 'Americana' (Incentive)
Paffendorf - 'Welcome To America' [Technopunk Remix] (Kontor)
Thilo & Evanti - 'Static' (Straight On Black)
Riot303 vs Observer - 'Kickin' & Alive' (Everlasting)
Remo-Con - 'G-Sigh' (Hellhouse)
Ghost - 'Who's Fucking Me' (GS2)
JC Russel - 'Huntdown 4am' (Matrix)
Mark Sherry - 'Venegeance' (Detox)
Yoji Biomehanika - 'Never End' [Version-x] (Hellhouse)
Eurotrash - 'Get Up, Get Down' [Yoji Biomehanika Remix] (Stimulant)
Yoji Biomehanika - 'Samurai' (Hellhouse)
Tobias Luke - 'Seek & Destroy' (Compressed)
Yoji Biomehanika - 'Monochroma' [Romeo Toscani Remix] (Hellhouse)
Derler & Klitzing - 'My Life' (Proceed)
Dark By Design - 'Blackout' [Yoji Biomehanika & Romeo Toscani Remix] (Good Greef)
Cruz & The White feat. DJ Steph - 'Technology' (Patriot Hardbeat)
Thilo & Evanti - 'Caution' (Straight On Black)
Yoji Biomehanika - 'Monochroma [ Blutonium Boy vs. DJ Neo Remix]' (Hellhouse)
DJ Century & Synthetic - 'Ipanema' (Illuminate)
Dave202 meets Dumonde - 'Singularity' (F8T)
Gouryella - 'Ligaya' [Yoji Biomehanika Remix] (Carnal Purple Eye Entertainment)

Cue:
----
code:
PERFORMER "Public Domain" TITLE "Americana" INDEX 01 00:00:00 TRACK 02 AUDIO PERFORMER "Paffendorf" TITLE "Welcome to Afrika (Technopunk Remix)" INDEX 01 07:16:60 TRACK 03 AUDIO PERFORMER "Thilo and Evanti" TITLE "Static" INDEX 01 12:27:20 TRACK 04 AUDIO PERFORMER "Riot303 vs. Observer" TITLE "Kickin and Alive" INDEX 01 16:38:10 TRACK 05 AUDIO PERFORMER "Remo-Con" TITLE "G-Sigh" INDEX 01 22:12:65 TRACK 06 AUDIO PERFORMER "Ghost" TITLE "Who's F***ing Me" INDEX 01 27:16:20 TRACK 07 AUDIO PERFORMER "JC Russel" TITLE "Huntdown 4am" INDEX 01 31:15:00 TRACK 08 AUDIO PERFORMER "Mark Sherry" TITLE "Venegeance" INDEX 01 35:18:30 TRACK 09 AUDIO PERFORMER "Yoji Biomehanika" TITLE "Never End (Version-X)" INDEX 01 40:33:30 TRACK 10 AUDIO PERFORMER "Eurotrash" TITLE "Get up, Get down (Yoji Biomehanika Remix)" INDEX 01 50:58:30 TRACK 11 AUDIO PERFORMER "Yoji Biomehanika" TITLE "Samurai" INDEX 01 58:35:55 TRACK 12 AUDIO PERFORMER "Tobias Luke" TITLE "Seek and Destroy" INDEX 01 65:30:30 TRACK 13 AUDIO PERFORMER "Yoji Biomehanika" TITLE "Monochroma (Romeo Toscani Remix)" INDEX 01 69:20:50 TRACK 14 AUDIO PERFORMER "Derler and Klitzing" TITLE "My Life" INDEX 01 75:38:20 TRACK 15 AUDIO PERFORMER "Dark by Design" TITLE "Blackout (Yoji Biomehanika and Romeo Toscani Remix)" INDEX 01 80:43:60 TRACK 16 AUDIO PERFORMER "Cruz and The White featuring Steph" TITLE "Technology" INDEX 01 86:25:20 TRACK 17 AUDIO PERFORMER "Thilo and Evanti" TITLE "Caution" INDEX 01 91:14:30 TRACK 18 AUDIO PERFORMER "Yoji Biomehanika" TITLE "Monochroma (Blutonium Boy vs. Neo Remix)" INDEX 01 96:40:00 TRACK 19 AUDIO PERFORMER "Century and Synthetic" TITLE "Ipanema" INDEX 01 102:11:55 TRACK 20 AUDIO PERFORMER "Dave202 meets Dumonde" TITLE "Singularity" INDEX 01 106:29:40 TRACK 21 AUDIO PERFORMER "Gouryella" TITLE "Ligaya (Yoji Biomehanika Remix)" INDEX 01 111:30:60




Rennie Pilgrem
Essential Mix 2005.11.27
Genre: Breaks

Download


Track List:
-----------
Rennie Pilgrem - '555' (TCR)
Rennie Pilgrem - 'Ow' (TCR)
JDS - 'P Funk' (TCR)
Pimpwax - 'Can't Stop' (Dead Famous)
Rennie Pilgrem Feat Chickaboo - 'Celeb' (TCR)
Paradox 300 - 'Groovers & Shakers' (Punk Funk)
Elite Force - 'Mindfunk' (Kingsize)
Jem Stone & JC - 'Disco Daze' (Fingerlickin)
Mr Potato Head - 'Bowie Knife' (TCR)
3Hz & Baobinga - 'Rip Shit Up' (CDR)
Unknown - 'iBreaks 3' (Maddox Remix) (ibreaks)
Rennie PIlgrem - 'U Know' (TCR)
Aquasky & Meat Katie - 'Overneath' (Passenger)
Mike & Charlie - 'I Get Live' (Regal)
Rennie PIlgrem - 'Super Crazy Ill Bombs' (TCR)
Unkown - 'Voices' (White Label)
Rennie Pilgrem- 'Get Off' (TCR)
Ram Jam - 'Black Betty' (TCR)
Dumb Blonde - 'We Have The Technology' (White)
Circuit Breaker - 'Gateway' (Lot 49)
Coburn - 'We Interrupt This Programme' (Stanton Warriors mix) (White)
Artcrime - 'Like This' (Rollover)
Jhz - 'Jack Jack' (TCR)
Rennie PIlgrem & Blim - 'Yaffle' (TCR)
Uberzone - 'Satisfaction' (CDR)
Slyde - 'Vibrate To This' (Trouble Soup Mix) (Fingerlickin)
Santos - 'Pump It Out' (Mantra)
Aquasky - 'Girls/Boys' (Passenger)
Paradox 300 Vs Kasabian - 'Processed Breaks' (White)
David Bowie - 'John I'm Only Dancing' (White)



Adam Sheridan
Essential Mix 2004-01-25
Genre: Trance

Download


Track List:
-----------
Remy - ‘Napolitan’ (Combined Forces)
V.R. Volvox - ‘Herzmaschine’ (Staub)
Stephan J Kroos – ‘Phanzmz’ (Anjunabeats)
Martin H - ‘Liftin’ (ACDC)
Miro -’By Your Side’ (Euphonic)
Adam Sheridan - ‘Captured’ (White)
Emperical Labs -’Turtle Beech’ (A State Of Trance)
Super 8 -’Alba’ (Anjunabeats)
Primer - ‘Indulge’ (Progrez)
DJ Dano & Rob Styles - ‘Aragon’ (Captivating Sounds)
Unknown - ‘Unknown’
Christian Varela – Underground Station (Equator)
Huntmann - ‘Discotech’
Emanuel Top - ‘Mars’ (Traccid Traxx)
Frank Biazzi - ‘Turbulence’ (Lupp)
Renato Cohen - ‘Pontapae’ (Intec)
Don Diablo - ‘Useless’ (ID-T)
Max Walder - ‘Compressor’ (Terminal M)
Tiesto - ‘Traffic’ (Nebula)
Cloxx - ‘Overdrive’ (Spinnin Records)
Adam Sheridan - ‘Terminal Velocity’ (White)
Ronald Van Gelderan - ‘Sustain’ (Tsunami)
G&M Project – Sunday Afternoon’ (ID-T)
Nu NRG - ‘Connective’ (Vandit)
Adam Sheridan - ‘Electro Sessions Part 1’ (White)
Adam Sheridan - ‘Lektrik’ (Tatsumaki)




HIGH CONTRAST
Essential Mix
Genre: Drum & Bass

Download


Track List:
-----------
The Streets - 'It's too Late (high contrast mix) ' (679)
London Electricity - 'To Be Free' (Hospital)
High Contrast - 'Twilights Last Gleaming' (Hospital)
Cyantific - '90' (Hospital)
Unknown - 'Searching for my Rizla' (White Label)
Influx Datum UK - 'Sing Out' (Formation)
Nu:Tone - 'Our House (Calibre Remix)' (White )
High Contrast - 'Return of Forever' (Hospital)
Roland Clarke - 'I Get Deep (Accapella)' (Shelter)
D. Kay + DJ Lee - 'Manipulate the Universe'(White Label)
John B - 'Without U' (White Label)
Mind Machine - 'Barcelona (High Contrast Remix) (BC recordings)
Unknown - 'Delirium remix' (white label)
Kaos - 'Studio 54' (Human)
Matrix - 'Trippin Remix' (White label)
MIST - 'Outer Space' (Soul:R)
High Contrast - 'Love sick' (Hospital)
London electricity - 'Born 2 Synthesize' (Hospital)
FSOL - 'Papua New Guinea remix' (White Label)
Unknown - 'LFO remix' (White Label)
Unknown - 'Gypsey Woman rmx' (White Label)
Nu:Tone - 'Do It/ Feel It' (White Label)
High Contrast - 'The Basement Track' (Hospital)
Landslide - 'It's Not Over (Influx Datum UK remix) (Hospital)
MIST - 'Barracuda' (Soul:R)
Johnny L - 'Let's Roll' (Pirahna)
Photek - 'The End Remix' (Photek Productions)
London Electricity - 'Different Drum' (Hospital)
Omni Trio - 'Renegade Snares (High Contrast Remix)' (Moving Shadow)

CUE:
code:
TRACK 01 AUDIO TITLE "Intro" INDEX 01 00:00:00 TRACK 02 AUDIO TITLE "It's too Late (high contrast mix) (679)" PERFORMER "The Streets" INDEX 01 01:21:00 TRACK 03 AUDIO TITLE "To Be Free (Hospital) " PERFORMER "London Electricity" INDEX 01 05:07:30 TRACK 04 AUDIO TITLE "Twilights Last Gleaming (Hospital) " PERFORMER "High Contrast" INDEX 01 08:38:00 TRACK 05 AUDIO TITLE "90 (Hospital)" PERFORMER "Cyantific" INDEX 01 14:34:00 TRACK 06 AUDIO TITLE "Searching for my Rizla (White Label)" PERFORMER "Unknown" INDEX 01 18:58:00 TRACK 07 AUDIO TITLE "Sing Out (Formation)" PERFORMER "Influx Datum UK" INDEX 01 24:05:00 TRACK 08 AUDIO TITLE "Our House (Calibre Remix) (White )" PERFORMER "Nu:Tone" INDEX 01 28:16:35 TRACK 09 AUDIO TITLE "Return of Forever (Hospital) [Roland Clarke - I Get Deep (Accapella) (Shelter)]" PERFORMER "High Contrast" INDEX 01 32:47:50 TRACK 10 AUDIO TITLE "Manipulate the Universe (White Label)" PERFORMER "D. Kay + DJ Lee" INDEX 01 37:56:00 TRACK 11 AUDIO TITLE "Without U (White Label)" PERFORMER "John B" INDEX 01 42:19:00 TRACK 12 AUDIO TITLE "Barcelona (High Contrast Remix) (BC recordings)" PERFORMER "Mind Machine" INDEX 01 45:36:00 TRACK 13 AUDIO TITLE "Delirium remix (white label)" PERFORMER "Unknown" INDEX 01 48:21:00 TRACK 14 AUDIO TITLE "Studio 54 (Human)" PERFORMER "Kaos" INDEX 01 53:05:00 TRACK 15 AUDIO TITLE "Trippin Remix (White label)" PERFORMER "Matrix" INDEX 01 56:44:00 TRACK 16 AUDIO TITLE "Outer Space (Soul:R)" PERFORMER "MIST" INDEX 01 61:06:00 TRACK 17 AUDIO TITLE "Love sick (Hospital)" PERFORMER "High Contrast" INDEX 01 65:50:00 TRACK 18 AUDIO TITLE "Born 2 Synthesize (Hospital)" PERFORMER "London electricity" INDEX 01 71:24:40 TRACK 19 AUDIO TITLE "Papua New Guinea remix (White Label)" PERFORMER "FSOL" INDEX 01 76:00:00 TRACK 20 AUDIO TITLE "LFO remix (White Label)" PERFORMER "Unknown" INDEX 01 81:54:40 TRACK 21 AUDIO TITLE "Gypsey Woman rmx (White Label)" PERFORMER "Unknown" INDEX 01 83:45:00 TRACK 22 AUDIO TITLE "Do It/ Feel It (White Label) " PERFORMER "Nu:Tone" INDEX 01 87:17:40 TRACK 23 AUDIO TITLE "The Basement Track (Hospital)" PERFORMER "High Contrast" INDEX 01 90:44:00 TRACK 24 AUDIO TITLE "It's Not Over (Influx Datum UK remix) (Hospital)" PERFORMER "Landslide" INDEX 01 93:55:30 TRACK 25 AUDIO TITLE "Barracuda (Soul:R)" PERFORMER "MIST" INDEX 01 98:46:00 TRACK 26 AUDIO TITLE "Let's Roll (Pirahna)" PERFORMER "Johnny L" INDEX 01 100:37:30 TRACK 27 AUDIO TITLE "The End Remix (Photek Productions)" PERFORMER "Photek" INDEX 01 104:39:00 TRACK 28 AUDIO TITLE "Different Drum' (Hospital)" PERFORMER "London Electricity" INDEX 01 109:55:40 TRACK 29 AUDIO TITLE "Renegade Snares (High Contrast Remix) (Moving Shadow)" PERFORMER "Omni Trio" INDEX 01 114:29:40




Plump DJs - Essential Mix 15/06/2003
Genre: Breaks

Download


Track List:
-----------
Plump DJs - 'Funk Hits The Fan' (Finger Lickin)
Plump DJs - 'Weighed Down' (Finger Lickin)
Drummatic Twins - 'Invincible Bass' (Finger Lickin)
Siedah Garvett - 'Kissing' (Qwest)
Zulu Nation - 'Chant' (Cyber)
Tony Faline - 'Feel The Funk' (Air)
Robbie Rivera - 'Funkatron' (White Label)
Luke Fair - 'Untitled' (White Label)
Mary J Blige - 'Family Affair' (MCA)
Zero - 'unknown' (Streetwise)
Elite Force - 'No Turning Back' (Whole 9 Yards)
Freeland - 'We Want Your Soul' (Marine Parade)
Tricknology No 3 - 'Hardflow' (White Label)
Apollo Kids - 'Counting Off' (Fat)
Plump DJs - 'Pray 4 U' (Finger Lickin)
2 Sinners - 'Kingpin' (252)
unknown - 'unknown' (unknown)
GPA - 'Velvet Voodoo' (Global Harmony)
New Order vs Slam - 'Crystal Education' (White Label)
Soul Of Man - 'Save All Your Kisses' (Finger Lickin)
Rennie Pilgrim - 'Some Place Funky' (White Label)
Plump DJs - 'Contact 00' (Finger Lickin)
Plump DJs - 'How Much Is Enough ' (Finger Lickin)
Plump DJs - 'Get Kinky' (Finger Lickin)
Xpress 2 - 'London Express' (JBO)
Hijack - 'The Badman Is Robin' (White Label)
Underworld - 'Born Slippy' (JBO)
Electronauts - 'Bumper' (Lacerba)
Plump DJs - 'The Gate' (Finger Lickin)

Cue:
----

code:
TRACK 01 AUDIO PERFORMER "Plump DJs" TITLE "Funk Hits The Funk" INDEX 01 00:00:00 TRACK 02 AUDIO PERFORMER "Plump DJs" TITLE "Weighed Down" INDEX 01 06:41:20 TRACK 03 AUDIO PERFORMER "Drummatic Vs Seidah Garvett" TITLE "Kiss My Bass" INDEX 01 13:31:50 TRACK 04 AUDIO PERFORMER "Zulu Nation" TITLE "The Chant" INDEX 01 17:33:50 TRACK 05 AUDIO PERFORMER "Tony Faline" TITLE "Feel The Funk" INDEX 01 21:49:30 TRACK 06 AUDIO PERFORMER "Robbie Rivera" TITLE "Funkatron" INDEX 01 27:02:10 TRACK 07 AUDIO PERFORMER "Luke Fair Vs Mary J. Blige" TITLE "Family Affair" INDEX 01 32:14:70 TRACK 08 AUDIO PERFORMER "Zero Emit" TITLE "Collect" INDEX 01 38:38:65 TRACK 09 AUDIO PERFORMER "Elite Force vs Freland" TITLE "No Turning Back On Your Soul" INDEX 01 44:05:60 TRACK 10 AUDIO PERFORMER "Tricknology No 3" TITLE "Hardflow" INDEX 01 48:00:00 TRACK 11 AUDIO PERFORMER "Apollo Kids" TITLE "Counting Off" INDEX 01 54:37:00 TRACK 12 AUDIO PERFORMER "2sinners" TITLE "Kingpin" INDEX 01 57:55:18 TRACK 13 AUDIO PERFORMER "Curiosity Killed The Cat" TITLE "Down To Earth" INDEX 01 60:02:65 TRACK 14 AUDIO PERFORMER "GPA" TITLE "Velvet Voodoo" INDEX 01 64:08:70 TRACK 15 AUDIO PERFORMER "Soul Of Man" TITLE "Save All Your Kisses" INDEX 01 67:12:20 TRACK 16 AUDIO PERFORMER "Rennie Pilgrem" TITLE "Some Place Funky" INDEX 01 72:22:25 TRACK 17 AUDIO PERFORMER "Plump DJs" TITLE "Contact 00" INDEX 01 77:50:50 TRACK 18 AUDIO PERFORMER "Plump DJs" TITLE "How Much Is Enough" INDEX 01 84:10:35 TRACK 19 AUDIO PERFORMER "Plump DJs" TITLE "Get Kinky" INDEX 01 89:33:00 TRACK 20 AUDIO PERFORMER "Xpress 2" TITLE "London Express" INDEX 01 93:44:00 TRACK 21 AUDIO PERFORMER "Hijack" TITLE "The Badman Is Robin" INDEX 01 95:36:60 TRACK 22 AUDIO PERFORMER "Born Sloppy" TITLE "Bootleg" INDEX 01 102:02:50 TRACK 23 AUDIO PERFORMER "Plump DJs" TITLE "The Extended Gate" INDEX 01 110:25:60



___________________
-M2J

For set downloads, event details and radio schedule visit:
http://www.vitalevents.net/

Old Post Apr-18-2006 04:50  Canada
Click Here to See the Profile for m2j Click here to Send m2j a Private Message Visit m2j's homepage! Add m2j to your buddy list Report this Post Reply w/Quote Edit/Delete Message

TranceAddict Forums > Local Scene Info / Discussion / EDM Event Listings > Canada > Canada - Toronto & Southern Ont. > Download Thread.
Post New Thread    Post A Reply

Pages (176): « 1 2 3 4 5 6 7 8 9 10 11 12 13 14 15 16 17 18 19 20 21 22 23 24 25 26 27 28 29 30 31 32 33 34 35 36 37 38 39 40 41 42 43 44 45 46 47 48 49 50 51 52 53 54 55 56 57 58 59 60 61 62 63 64 65 66 67 68 69 70 71 72 73 74 75 76 77 78 79 80 81 82 83 84 85 86 87 88 89 90 91 92 93 94 95 96 97 98 99 100 101 102 103 104 105 106 107 108 109 110 111 112 113 114 115 116 117 118 119 120 121 122 123 124 125 126 127 128 129 130 131 132 133 134 135 136 137 138 139 [140] 141 142 143 144 145 146 147 148 149 150 151 152 153 154 155 156 157 158 159 160 161 162 163 164 165 166 167 168 169 170 171 172 173 174 175 176 »  
Last Thread   Next Thread
Show Printable Version | Subscribe to this Thread

Forum Jump:

All times are GMT. The time now is 11:51.

Forum Rules:
You may not post new threads
You may not post replies
You may not edit your posts
HTML code is ON
vB code is ON
[IMG] code is ON
 
Search this Thread:

 
Contact Us - return to tranceaddict

Powered by: Trance Music & vBulletin Forums
Copyright ©2000-2018

Privacy Statement / DMCA