Become a part of the TranceAddict community! Frequently Asked Questions - Please read this if you haven'tSearch the forums
TranceAddict Forums > Tracks Section > Tracklist Requests / Postings > Global DJ Broadcast (02-23-2006)
Pages (7): « 1 2 3 4 5 6 [7]   Last Thread   Next Thread
Author
Thread    Post A Reply
Hanki
... Timewritin'



Registered: May 2004
Location: Plastic City

You're saying it was nice!? PvD's set was crap. Haven't heard such a boring set for a long time...


___________________
There's nothing better than the music in your soul ...

Old Post Feb-23-2006 19:36  Poland
Click Here to See the Profile for Hanki Click here to Send Hanki a Private Message Visit Hanki's homepage! Add Hanki to your buddy list Report this Post Reply w/Quote Edit/Delete Message
juliusk
Supreme tranceaddict



Registered: Jan 2006
Location: Budapest/Hungary

This is missing from the tracklist

Paul van Dyk

01. ID
02. Balearic Session - Salinas (Original Mix)
03. Filo & Peri vs Serge Devant - Elektrofunk (Lys & Gigi Remix)
04. The Drill - The Drill
05. Max Graham - Automatic Weapon
06. Lange vs Gareth Emery - Back On Track
07. ID
08. Dogzilla - Without You
09. Blank & Jones - Revealed (Mac Zimms remix)
10. Sophie Sugar pres Saona - Isis
11. Kyau vs Albert - Kiksu
12. Probspot - Blows My Mind (Remix)

Old Post Feb-26-2006 16:14  Hungary
Click Here to See the Profile for juliusk Click here to Send juliusk a Private Message Add juliusk to your buddy list Report this Post Reply w/Quote Edit/Delete Message
AlexSprengberg
Supreme tranceaddict



Registered: Mar 2005
Location: Walheim / Stuttgart

quote:
Originally posted by juliusk
This is missing from the tracklist

Paul van Dyk

01. ID
02. Balearic Session - Salinas (Original Mix)
03. Filo & Peri vs Serge Devant - Elektrofunk (Lys & Gigi Remix)
04. The Drill - The Drill
05. Max Graham - Automatic Weapon
06. Lange vs Gareth Emery - Back On Track
07. ID
08. Dogzilla - Without You
09. Blank & Jones - Revealed (Mac Zimms remix)
10. Sophie Sugar pres Saona - Isis
11. Kyau vs Albert - Kiksu
12. Probspot - Blows My Mind (Remix)


12. Probspot - Blows My Mind (Probspot Dub Mix) Lost Language 54

Old Post Feb-26-2006 16:27  Germany
Click Here to See the Profile for AlexSprengberg Click here to Send AlexSprengberg a Private Message Add AlexSprengberg to your buddy list Report this Post Reply w/Quote Edit/Delete Message
TigerClaw
GDJB Staff



Registered: Aug 2000
Location: Hialeah, Florida

Thanks for the update.


___________________

MarkusSchulz.com Party107.com 160k 32k

Old Post Feb-26-2006 21:09  United States
Click Here to See the Profile for TigerClaw Click here to Send TigerClaw a Private Message Add TigerClaw to your buddy list Report this Post Reply w/Quote Edit/Delete Message
benchristopher
Supreme tranceaddict



Registered: Mar 2003
Location: Zurich

Markus Schulz set

02. York - Farewell To The Moon (Airwave Remix)


___________________
www.cdworld.ch

Old Post Feb-27-2006 23:21  Switzerland
Click Here to See the Profile for benchristopher Click here to Send benchristopher a Private Message Visit benchristopher's homepage! Add benchristopher to your buddy list Report this Post Reply w/Quote Edit/Delete Message
flavdave
The Quiet Beatle



Registered: Jan 2004
Location: Richmond/Blacksburg, VA

I miss the old PvD.

Old Post Feb-28-2006 01:12  United States
Click Here to See the Profile for flavdave Click here to Send flavdave a Private Message Add flavdave to your buddy list Report this Post Reply w/Quote Edit/Delete Message
BZRK
headcase



Registered: Aug 2003
Location: Desselgem, Belgium

Does anybody already have some more information on that nr 05 ID from Markus' set? That track is stunning!

Someone told me it's supposed to be a new Alex Stealthy production, but I don't know how much of that is true.


___________________
Songs I'm dying for:
Topher Jones feat Meredith Call - Benediction // Imogen Heap - The Moment I Said It (Ben Brown Remix) // Probspot - Crimes Of Passion // Tkac & Haverlik - Leeane (Kalafut & Fygle Remix) // Luke Chable - Melburn (Am Bee En Tea Mix) // Mogwai - Hunted By A Freak (Attention Deficit's Leave A Light On Mix)

Music never separated people. No one style music is better than the other and no one style is truer than the other. It's all music !!
Please ID this track

Old Post Mar-01-2006 13:27  Belgium
Click Here to See the Profile for BZRK Click here to Send BZRK a Private Message Visit BZRK's homepage! Add BZRK to your buddy list Report this Post Reply w/Quote Edit/Delete Message
Devviance!
tranceaddict



Registered: Sep 2005
Location: Perth, Australia

that definitely sounds like stealthy.....his unique basslines and percussion give it away....but we can never be too sure..


___________________
Deviate from the norm and express yourself...
"My Sound" on SGFM Fridays 12:00 CST (-6)...

Old Post Mar-01-2006 17:05  Australia
Click Here to See the Profile for Devviance! Click here to Send Devviance! a Private Message Add Devviance! to your buddy list Report this Post Reply w/Quote Edit/Delete Message
stigmat
tranceaddict



Registered: Feb 2005
Location: Poland

CUE files will be useful...Somebody make it?

Old Post Mar-04-2006 19:42  Poland
Click Here to See the Profile for stigmat Click here to Send stigmat a Private Message Add stigmat to your buddy list Report this Post Reply w/Quote Edit/Delete Message
kappa82
Supreme tranceaddict



Registered: Aug 2004
Location: Gogolin, Poland

PERFORMER "Markus Schulz (Guest Mix: Paul Van Dyk)"
TITLE "Global DJ Broadcast (02.23.2006)"
FILE "---.mp3" MP3
TRACK 01 AUDIO
PERFORMER "<<< Markus Schulz >>> Leama & Moor"
TITLE "Everything Matters (Niklas Harding pres. Arcane Remix)"
INDEX 01 00:00:00
TRACK 02 AUDIO
PERFORMER "York"
TITLE "Farewell To The Moon (Airwave Remix)"
INDEX 01 08:10:60
TRACK 03 AUDIO
PERFORMER "ZirenZ"
TITLE "Edge Of Space (Whiteroom Remix)"
INDEX 01 13:57:15
TRACK 04 AUDIO
PERFORMER "Jose Amnesia vs. Shawn Mitiska"
TITLE "My All (Markus Schulz Coldharbour Remix)"
INDEX 01 21:17:20
TRACK 05 AUDIO
PERFORMER ""
TITLE "ID"
INDEX 01 27:32:65
TRACK 06 AUDIO
PERFORMER "Sassot"
TITLE "Where It All Begun"
INDEX 01 33:48:10
TRACK 07 AUDIO
PERFORMER "Markus Schulz feat. Airwave"
TITLE "Ballymena (Gabriel Batz Remix)"
INDEX 01 41:37:25
TRACK 08 AUDIO
PERFORMER "The Flash Brothers feat. Tiff Lacey"
TITLE "Faith In Love (Andrew Bennett Remix)"
INDEX 01 45:42:60
TRACK 09 AUDIO
PERFORMER "Marco V."
TITLE "No Place For Silence"
INDEX 01 50:59:20
TRACK 10 AUDIO
PERFORMER "Keenan vs. Anderson feat. ENDC"
TITLE "Don't Drift Away (Original Mix)"
INDEX 01 55:41:70
TRACK 11 AUDIO
PERFORMER ""
TITLE "<<< Guest Mix: Paul Van Dyk >>> ID"
INDEX 01 60:23:40
TRACK 12 AUDIO
PERFORMER "Balearic Session"
TITLE "Salinas (Original Mix)"
INDEX 01 63:59:60
TRACK 13 AUDIO
PERFORMER "Filo & Peri vs. Serge Devant"
TITLE "Elektrofunk (Lys & Gigi Remix)"
INDEX 01 70:46:60
TRACK 14 AUDIO
PERFORMER "The Drill"
TITLE "The Drill"
INDEX 01 74:08:45
TRACK 15 AUDIO
PERFORMER "Max Graham"
TITLE "Automatic Weapon"
INDEX 01 78:50:00
TRACK 16 AUDIO
PERFORMER "Lange vs. Gareth Emery"
TITLE "Back On Track"
INDEX 01 82:47:45
TRACK 17 AUDIO
PERFORMER ""
TITLE "ID"
INDEX 01 88:19:30
TRACK 18 AUDIO
PERFORMER "Dogzilla"
TITLE "Without You"
INDEX 01 91:04:00
TRACK 19 AUDIO
PERFORMER "Blank & Jones"
TITLE "Revealed (Mac Zimms Remix)"
INDEX 01 97:34:60
TRACK 20 AUDIO
PERFORMER "Kyau vs. Albert"
TITLE "Kiksu"
INDEX 01 100:05:50
TRACK 21 AUDIO
PERFORMER "Probspot feat. Ben Lost"
TITLE "Blows My Mind (Probspot Dub Mix)"
INDEX 01 110:36:20


___________________
Favorite DJ's:

M.I.K.E., Airwave, Sander Van Doorn, John '00' Fleming, Markus Schulz, Andrew Bennett, Mauro Picotto
--------------------------------------
M.I.K.E. (Push) Tracklist Archive

Old Post Mar-10-2006 13:10  Poland
Click Here to See the Profile for kappa82 Click here to Send kappa82 a Private Message Add kappa82 to your buddy list Report this Post Reply w/Quote Edit/Delete Message

TranceAddict Forums > Tracks Section > Tracklist Requests / Postings > Global DJ Broadcast (02-23-2006)
Post New Thread    Post A Reply

Pages (7): « 1 2 3 4 5 6 [7]  
Last Thread   Next Thread
Show Printable Version | Subscribe to this Thread

Forum Jump:

All times are GMT. The time now is 10:28.

Forum Rules:
You may not post new threads
You may not post replies
You may not edit your posts
HTML code is ON
vB code is ON
[IMG] code is ON
 
Search this Thread:

 
Contact Us - return to tranceaddict

Powered by: Trance Music & vBulletin Forums
Copyright ©2000-2018

Privacy Statement / DMCA