Become a part of the TranceAddict community! Frequently Asked Questions - Please read this if you haven'tSearch the forums
TranceAddict Forums > Archives > Classic old threads / Inactive Forums > [DD] TrancEaddicts Unite Chapter 3 - The Stars of Tomorrow
Pages (13): « 1 2 3 4 [5] 6 7 8 9 10 11 12 13 »   Last Thread   Next Thread
Author
Thread    Post A Reply
Massive84
Old Relic



Registered: Jul 2003
Location: Sequence Realm

Please download this as fast as you can, seems mine mate got an email, that they are gonne shut the ftp down , because the payment is done, i thought it would be a while

so download as fast as you can, and if someone can host it for the other people would be nice

Sorry didnt expect this


___________________
quote:
Originally posted by Octanesyco
Greetings. My name is Casey. You can call me Moose.
-Moose

Old Post Oct-01-2003 11:07  Netherlands
Click Here to See the Profile for Massive84 Click here to Send Massive84 a Private Message Add Massive84 to your buddy list Report this Post Reply w/Quote Edit/Delete Message
thecYrus
Supreme tranceaddict



Registered: Oct 2002
Location:

hehe, a female cyborg

Old Post Oct-01-2003 11:13 
Click Here to See the Profile for thecYrus Click here to Send thecYrus a Private Message Add thecYrus to your buddy list Report this Post Reply w/Quote Edit/Delete Message
-blake-
tranceaddict



Registered: Feb 2003
Location: Ottawa

It's been mentioned once - but seriously, who's in charge of a cue sheet here?

I was a part of the last series, but I gotta admit, this one is a lot higher quality. A ton of top notch tracks on here and I'm itchin to find out what is what. I was also thrilled to see the MK-S remix of Frenzy on here..what a killer track that is.

Nice job, everyone.

Old Post Oct-01-2003 18:45  Canada
Click Here to See the Profile for -blake- Click here to Send -blake- a Private Message Add -blake- to your buddy list Report this Post Reply w/Quote Edit/Delete Message
Mr.Mystery
303 <3 808



Registered: Dec 2001
Location: Vantaa

Right, here you go... it's the first cue sheet I've ever done so I have no idea whether it's actually correct

TITLE "TrancEaddicts Unite Chapter 3 - The Stars of Tomorrow"
FILE "TrancEaddicts Unite Chapter 3 - The Stars of Tomorrow.mp3" MP3
TRACK 01 AUDIO
TITLE "Echano - Imagine (2003 Remake)"
INDEX 01 000:00:00
TRACK 02 AUDIO
TITLE "Al Azar - Symphony in Blue"
INDEX 01 007:21:40
TRACK 03 AUDIO
TITLE "Groove Merchant - The Tall Tale Suicides"
INDEX 01 015:15:30
TRACK 04 AUDIO
TITLE "Eduardo Rada - Azul Profundo"
INDEX 01 019:00:99
TRACK 05 AUDIO
TITLE "Virii - Origin"
INDEX 01 023:38:76
TRACK 06 AUDIO
TITLE "Escape N2 Trance - Mecca"
INDEX 01 031:17:09
TRACK 07 AUDIO
TITLE "Bren-F - Diamond Dust"
INDEX 01 037:32:09
TRACK 08 AUDIO
TITLE "John O'Callaghan - Foreign Dilusions"
INDEX 01 043:26:26
TRACK 09 AUDIO
TITLE "Costa del Sol - Aloha"
INDEX 01 051:32:37
TRACK 10 AUDIO
TITLE "Endre - Novelty Pioneers"
INDEX 01 057:19:59
TRACK 11 AUDIO
TITLE "Elude - Purgatory"
INDEX 01 062:11:25
TRACK 12 AUDIO
TITLE "Sean Walsh - Celerity 17 (SW Remix)"
INDEX 01 069:14:89
TRACK 13 AUDIO
TITLE "George Kendall - Untitled (OrgaNik Rework)"
INDEX 01 074:20:44
TRACK 14 AUDIO
TITLE "Cosmic Tracer - Hyperbolic"
INDEX 01 079:12:11
TRACK 15 AUDIO
TITLE "Icone - Astra (Original Epic Mix)"
INDEX 01 086:46:97
TRACK 16 AUDIO
TITLE "Solar Project - Mind in Motion"
INDEX 01 096:09:46
TRACK 17 AUDIO
TITLE "Pjotr G - Close"
INDEX 01 102:10:58
TRACK 18 AUDIO
TITLE "White Sun - Ketoprofen"
INDEX 01 107:02:24
TRACK 19 AUDIO
TITLE "Haak - Frenzy (MK-S Remix)"
INDEX 01 112:07:78
TRACK 20 AUDIO
TITLE "Emota - High Tides (OrgaNik Rework)"
INDEX 01 118:50:53
TRACK 21 AUDIO
TITLE "Fatboy - Rebound"
INDEX 01 127:10:52


___________________
Waking Dream [Electronic Tree]
Afraid to Dream EP [Electronic Tree]
Better Days EP [BWP]
In Search of Anything [Magnetism Digital]

Old Post Oct-01-2003 19:24  Finland
Click Here to See the Profile for Mr.Mystery Click here to Send Mr.Mystery a Private Message Add Mr.Mystery to your buddy list Report this Post Reply w/Quote Edit/Delete Message
Luke Terry
tranceaddict oldskool



Registered: Oct 2001
Location: Newcastle upon Tyne

quote:
Originally posted by Mr.Mystery
Right, here you go... it's the first cue sheet I've ever done so I have no idea whether it's actually correct

TITLE "TrancEaddicts Unite Chapter 3 - The Stars of Tomorrow"
FILE "TrancEaddicts Unite Chapter 3 - The Stars of Tomorrow.mp3" MP3
TRACK 01 AUDIO
TITLE "Echano - Imagine (2003 Remake)"
INDEX 01 000:00:00
TRACK 02 AUDIO
TITLE "Al Azar - Symphony in Blue"
INDEX 01 007:21:40
TRACK 03 AUDIO
TITLE "Groove Merchant - The Tall Tale Suicides"
INDEX 01 015:15:30
TRACK 04 AUDIO
TITLE "Eduardo Rada - Azul Profundo"
INDEX 01 019:00:99
TRACK 05 AUDIO
TITLE "Virii - Origin"
INDEX 01 023:38:76
TRACK 06 AUDIO
TITLE "Escape N2 Trance - Mecca"
INDEX 01 031:17:09
TRACK 07 AUDIO
TITLE "Bren-F - Diamond Dust"
INDEX 01 037:32:09
TRACK 08 AUDIO
TITLE "John O'Callaghan - Foreign Dilusions"
INDEX 01 043:26:26
TRACK 09 AUDIO
TITLE "Costa del Sol - Aloha"
INDEX 01 051:32:37
TRACK 10 AUDIO
TITLE "Endre - Novelty Pioneers"
INDEX 01 057:19:59
TRACK 11 AUDIO
TITLE "Elude - Purgatory"
INDEX 01 062:11:25
TRACK 12 AUDIO
TITLE "Sean Walsh - Celerity 17 (SW Remix)"
INDEX 01 069:14:89
TRACK 13 AUDIO
TITLE "George Kendall - Untitled (OrgaNik Rework)"
INDEX 01 074:20:44
TRACK 14 AUDIO
TITLE "Cosmic Tracer - Hyperbolic"
INDEX 01 079:12:11
TRACK 15 AUDIO
TITLE "Icone - Astra (Original Epic Mix)"
INDEX 01 086:46:97
TRACK 16 AUDIO
TITLE "Solar Project - Mind in Motion"
INDEX 01 096:09:46
TRACK 17 AUDIO
TITLE "Pjotr G - Close"
INDEX 01 102:10:58
TRACK 18 AUDIO
TITLE "White Sun - Ketoprofen"
INDEX 01 107:02:24
TRACK 19 AUDIO
TITLE "Haak - Frenzy (MK-S Remix)"
INDEX 01 112:07:78
TRACK 20 AUDIO
TITLE "Emota - High Tides (OrgaNik Rework)"
INDEX 01 118:50:53
TRACK 21 AUDIO
TITLE "Fatboy - Rebound"
INDEX 01 127:10:52


quite simply, it's wrong lol, the last part of the time is in frames not milliseconds, there are only 75 frames (0-74), and i am too tired to convert ms to frames so bleh!

i finally got the mix and it's mint, well done my fishy friends


___________________

w: www.luketerry.com

Old Post Oct-01-2003 19:51 
Click Here to See the Profile for Luke Terry Click here to Send Luke Terry a Private Message Visit Luke Terry's homepage! Add Luke Terry to your buddy list Report this Post Reply w/Quote Edit/Delete Message
Bren-F
Theiving Scouse Cünt



Registered: Aug 2002
Location: Liverpool, England

Boy it was well worth the wait.
I love this mix, all great tracks.
A true testament to the Vast amount of talent here on TA
Mixing is flawless aswell
If record label scouts don't start creaming themselves over this mix then theres simply nothing left that we can do...

Congrats to everyone who took part in this & a big thanks to MaRt & Mr.M for making this mix soo good !


*tries to pick himself back up after being completly 0wned by TA Unite III only to be 0wned once again by 'Fatboy - Rebound*


___________________
"I have more kicks than friends!" - Ned Bass

Youtube - MySpace - Audio Confusion? Blog

Old Post Oct-01-2003 21:25  England
Click Here to See the Profile for Bren-F Click here to Send Bren-F a Private Message Add Bren-F to your buddy list Report this Post Reply w/Quote Edit/Delete Message
Omegasox
AI for MVP



Registered: Sep 2002
Location: Pennsylvania

quote:
Originally posted by Mr.Mystery
Right, here you go... it's the first cue sheet I've ever done so I have no idea whether it's actually correct



Thanks bro! I normally just make all the frames 00 anyway, so no big deal.

Old Post Oct-01-2003 22:39  United States
Click Here to See the Profile for Omegasox Click here to Send Omegasox a Private Message Add Omegasox to your buddy list Report this Post Reply w/Quote Edit/Delete Message
State of Matter
Mashed Potatoes



Registered: Aug 2003
Location: Maryland, USA

Wow this mix is incredible. Hope you guys decide to do this again sometime so I can submit a track, especially love that last track Rebound.


___________________

Most recent tracks:
1) Ilan Bluestone - Spheres (State of Matter Eleventh Hour Mix)
2) MK-S - Illuminate (State of Matter Revival Mix)
3) Scarab - Vagabond (State of Matter Revival Mix)
4) Ferry Corsten & The Thrillseekers - Sublime (State of Matter Revival Mix)
5) State of Matter - Saving Icarus (Original Mix)

https://soundcloud.com/stateofmattermusic

Old Post Oct-01-2003 23:17  United States
Click Here to See the Profile for State of Matter Click here to Send State of Matter a Private Message Visit State of Matter's homepage! Add State of Matter to your buddy list Report this Post Reply w/Quote Edit/Delete Message
sash
retired.



Registered: Nov 2001
Location: Sydney, Australia

wow, great work

in my opinion the standout track was fatboys rebound. what did you use for the violin? sampletank? it sounds verrry nice.

Old Post Oct-02-2003 04:12  Australia
Click Here to See the Profile for sash Click here to Send sash a Private Message Add sash to your buddy list Report this Post Reply w/Quote Edit/Delete Message
TOR
Traveller



Registered: Aug 2001
Location: Bruges, Belgium

finally listened to it completely.. some very very good tracks in there indeed!

highlights:

al azar - symphony in blue
the groove merchant - tall tale suicides
john o'callaghan - foreign delusions
endre - novelty pioneers
haak - frenzy (mk-s remix) <-- best track in the mix!
fatboy - rebound

about the voice-over, i love it's sound but it's spoken rather quickly.. the mix itself was very well done

aawesome work everybody! my track is probably the worst of them all..


___________________
quote:
Originally texted by Jakhira
Out with the dog at the moment. Chicks love him, and I love chicks... The world is in harmony

Old Post Oct-02-2003 11:10  Europe
Click Here to See the Profile for TOR Click here to Send TOR a Private Message Add TOR to your buddy list Report this Post Reply w/Quote Edit/Delete Message
[mart]
PSN: mart_likes_fluke



Registered: Jun 2002
Location: England

If you didn't want a cheap nasty software-generated voiceover then you should have taken matters into your own hands - CONCENTRATE ON THE TRACKS! Especially mine!


___________________
www.myspace.com/alazarmusic
Al Azar - At The Edge Of Tomorrow (A Retrospective) 16 tracks for FREE!

Old Post Oct-02-2003 21:17  England
Click Here to See the Profile for [mart] Click here to Send [mart] a Private Message Add [mart] to your buddy list Report this Post Reply w/Quote Edit/Delete Message
El~ZaPo
W32.Trance.1999@mm



Registered: Nov 2001
Location: Hamilton, Ontario

Downloading. Will comment after listening to it.

Old Post Oct-02-2003 22:29  Canada
Click Here to See the Profile for El~ZaPo Click here to Send El~ZaPo a Private Message Add El~ZaPo to your buddy list Report this Post Reply w/Quote Edit/Delete Message

TranceAddict Forums > Archives > Classic old threads / Inactive Forums > [DD] TrancEaddicts Unite Chapter 3 - The Stars of Tomorrow
Post New Thread    Post A Reply

Pages (13): « 1 2 3 4 [5] 6 7 8 9 10 11 12 13 »  
Last Thread   Next Thread
Show Printable Version | Subscribe to this Thread

Forum Jump:

All times are GMT. The time now is 03:41.

Forum Rules:
You may not post new threads
You may not post replies
You may not edit your posts
HTML code is ON
vB code is ON
[IMG] code is ON
 
Search this Thread:

 
Contact Us - return to tranceaddict

Powered by: Trance Music & vBulletin Forums
Copyright ©2000-2017

Privacy Statement / DMCA