Become a part of the TranceAddict community! Frequently Asked Questions - Please read this if you haven'tSearch the forums
TranceAddict Forums > DJing / Production / Promotion > DJ Promotion > Lassy - Trance Classics Mix
Pages (9): « 1 2 3 4 5 6 7 8 [9]   Last Thread   Next Thread
Author
Thread    Post A Reply
Lassy
Senior tranceaddict



Registered: Mar 2004
Location: Zoetermeer, The Netherlands

Maybe 2004, then I only need to delete 1 track of my list

Old Post Jun-10-2013 14:57  Netherlands
Click Here to See the Profile for Lassy Click here to Send Lassy a Private Message Add Lassy to your buddy list Report this Post Reply w/Quote Edit/Delete Message
babyfrank
tranceaddict in training



Registered: Jun 2013
Location:
Exclamation SENSATION WHITE PRESALE PASSWORD

Sensation: Ocean of White comes to AmericanAirlines Arena Friday, October 11 and Saturday, October 12!

Sensation is having an EXCLUSIVE presale starting Thursday, June 13th from 10AM - 10PM. Use the presale password OCEAN to get your tickets before anyone else! Click here to buy your tickets > Friday: http://bit.ly/11fBZ6q. Saturday: http://bit.ly/172VQ0w

Old Post Jun-12-2013 18:41  United States
Click Here to See the Profile for babyfrank Click here to Send babyfrank a Private Message Add babyfrank to your buddy list Report this Post Reply w/Quote Edit/Delete Message
Lassy
Senior tranceaddict



Registered: Mar 2004
Location: Zoetermeer, The Netherlands

I am almost finished with my latest mix (Lassy - Trance Classics Mix 2). I am prelistening it a few times before I am 100% sure that I am satisfied with it.

Old Post Oct-10-2014 15:21  Netherlands
Click Here to See the Profile for Lassy Click here to Send Lassy a Private Message Add Lassy to your buddy list Report this Post Reply w/Quote Edit/Delete Message
Syntonic
Artcore Addict



Registered: May 2006
Location: Journey...On A...

It's been a minute, look forward to hearing it.


___________________
Help me ID these sets:
Sasha - Live @ Logic, Santa Monica, CA 12-21-97 - Groove 103.1 FM
John Digweed - Live @ Axis, Boston 28-07-1997



Old & New Electronic Music Channel

Old Post Oct-11-2014 07:25  United States
Click Here to See the Profile for Syntonic Click here to Send Syntonic a Private Message Add Syntonic to your buddy list Report this Post Reply w/Quote Edit/Delete Message
Lassy
Senior tranceaddict



Registered: Mar 2004
Location: Zoetermeer, The Netherlands

It's up here

Last edited by Lassy on Oct-18-2014 at 07:32

Old Post Oct-11-2014 08:47  Netherlands
Click Here to See the Profile for Lassy Click here to Send Lassy a Private Message Add Lassy to your buddy list Report this Post Reply w/Quote Edit/Delete Message
Sandsider
Supreme tranceaddict



Registered: May 2007
Location: Scotland /Utopia.

??? Where ??? or am I being thick ?


___________________
Got my self one of those Anti-Bullying wristbands.....stole it from a fat kid.x

Old Post Oct-18-2014 07:10  Scotland
Click Here to See the Profile for Sandsider Click here to Send Sandsider a Private Message Add Sandsider to your buddy list Report this Post Reply w/Quote Edit/Delete Message
Lassy
Senior tranceaddict



Registered: Mar 2004
Location: Zoetermeer, The Netherlands

quote:
Originally posted by Sandsider
??? Where ??? or am I being thick ?


http://www.tranceaddict.com/forums/...threadid=698709

Old Post Oct-18-2014 07:32  Netherlands
Click Here to See the Profile for Lassy Click here to Send Lassy a Private Message Add Lassy to your buddy list Report this Post Reply w/Quote Edit/Delete Message
Lassy
Senior tranceaddict



Registered: Mar 2004
Location: Zoetermeer, The Netherlands

Here is a cue sheet for those who are interested

REM GENRE Classic Trance
REM DATE 2006
REM
REM COMMENT Release Date: 25-04-2006
PERFORMER "Lassy"
TITLE "Lassy - Trance Classics Mix"
FILE "Lassy - Trance Classics Mix.mp3" WAVE
TRACK 01 AUDIO
TITLE "Mercury And Solace (BT 12 inch Master Mix)"
PERFORMER "BT"
INDEX 01 00:00:00
TRACK 02 AUDIO
TITLE "Venus Of My Dreams"
PERFORMER "Airwave"
INDEX 01 07:42:63
TRACK 03 AUDIO
TITLE "Northern Spirit"
PERFORMER "Kamaya Painters"
INDEX 01 13:49:56
TRACK 04 AUDIO
TITLE "Spacetribe"
PERFORMER "Humate"
INDEX 01 17:49:01
TRACK 05 AUDIO
TITLE "Everytime (Nalin & Kane Remix)"
PERFORMER "Lustral"
INDEX 01 22:45:70
TRACK 06 AUDIO
TITLE "Everlast"
PERFORMER "The Ambush"
INDEX 01 28:38:44
TRACK 07 AUDIO
TITLE "Velvet (Original)"
PERFORMER "Velvet Girl"
INDEX 01 33:06:50
TRACK 08 AUDIO
TITLE "So Many Ways (Original)"
PERFORMER "Planisphere"
INDEX 01 38:45:40
TRACK 09 AUDIO
TITLE "Tear Drops (Pure Mix)"
PERFORMER "Qattara"
INDEX 01 44:38:10
TRACK 10 AUDIO
TITLE "I Know You Love Me Too (Van Bellen Mix)"
PERFORMER "Chris Raven"
INDEX 01 51:13:61
TRACK 11 AUDIO
TITLE "Subraumstimulation (Main Mix)"
PERFORMER "Oliver Lieb"
INDEX 01 57:34:74
TRACK 12 AUDIO
TITLE "Sixty Nine Ways"
PERFORMER "Cloud 69"
INDEX 01 61:33:40
TRACK 13 AUDIO
TITLE "Horizons"
PERFORMER "James Holden"
INDEX 01 67:41:40
TRACK 14 AUDIO
TITLE "Hidden Sun Of Venus (12 inch Version)"
PERFORMER "LSG"
INDEX 01 74:42:10
TRACK 15 AUDIO
TITLE "Cryptomnesia"
PERFORMER "Kamaya Painters"
INDEX 01 81:14:40

Just copy paste in notepad and save as .cue in same folder as mp3 file

Last edited by Lassy on May-17-2017 at 09:37

Old Post Jul-17-2016 09:43  Netherlands
Click Here to See the Profile for Lassy Click here to Send Lassy a Private Message Add Lassy to your buddy list Report this Post Reply w/Quote Edit/Delete Message
Lassy
Senior tranceaddict



Registered: Mar 2004
Location: Zoetermeer, The Netherlands

Just wanna know if anybody is still enjoying this mix...

Old Post Sep-16-2017 21:50  Netherlands
Click Here to See the Profile for Lassy Click here to Send Lassy a Private Message Add Lassy to your buddy list Report this Post Reply w/Quote Edit/Delete Message
Zoso
Unicorn Cawk!



Registered: Mar 2006
Location: Dirty South, United States

quote:
Originally posted by Lassy
Just wanna know if anybody is still enjoying this mix...


Can you post a link to a recent upload? I had this at one time, but for the life of me can't locate it on my PC.

Old Post Sep-17-2017 01:03  United States
Click Here to See the Profile for Zoso Click here to Send Zoso a Private Message Add Zoso to your buddy list Zoso is online now Report this Post Reply w/Quote Edit/Delete Message
Lassy
Senior tranceaddict



Registered: Mar 2004
Location: Zoetermeer, The Netherlands

quote:
Originally posted by Zoso
Can you post a link to a recent upload? I had this at one time, but for the life of me can't locate it on my PC.


On page 1 you can find what you're looking for

Old Post Sep-17-2017 05:31  Netherlands
Click Here to See the Profile for Lassy Click here to Send Lassy a Private Message Add Lassy to your buddy list Report this Post Reply w/Quote Edit/Delete Message

TranceAddict Forums > DJing / Production / Promotion > DJ Promotion > Lassy - Trance Classics Mix
Post New Thread    Post A Reply

Pages (9): « 1 2 3 4 5 6 7 8 [9]  
Last Thread   Next Thread
Show Printable Version | Subscribe to this Thread

Forum Jump:

All times are GMT. The time now is 16:47.

Forum Rules:
You may not post new threads
You may not post replies
You may not edit your posts
HTML code is ON
vB code is ON
[IMG] code is ON
 
Search this Thread:

 
Contact Us - return to tranceaddict

Powered by: Trance Music & vBulletin Forums
Copyright ©2000-2017

Privacy Statement / DMCA

Icon