Become a part of the TranceAddict community! Frequently Asked Questions - Please read this if you haven'tSearch the forums
TranceAddict Forums > Tracks Section > Tracklist Requests / Postings > Perry O Neil - Plattenleger 03-18-2006
  Last Thread   Next Thread
Author
Thread    Post A Reply
TranceGrooves
TiTan Of TrAncE



Registered: May 2005
Location: EVERYWHERE
Perry O Neil - Plattenleger 03-18-2006

Perry O Neil - Live At Plattenleger 03-18-2006

Tracklist:
01. Karen Overton - Your Loving Arms (Club Mix) [Supra]
02. Retroid - Snowdrop (Micah's Snowglobe Ski Instructor Remix) [Feralcode]
03. Junk Science - Moodswing (Nikola Gala Remix) [Underground Lessons]
04. Group therapy - Thumbsucker [Audiotherapy]
05. Johan Vermeulen - Helix [KYR]
06. Nick Galea & Native - Good For You [Segment]
07. 2 Faced - Rock Music (Damien J Carter Remix) [Little Mountain]

Click Here

w0000t


___________________
Let's bring the change!!!

Last edited by TranceGrooves on Mar-20-2006 at 14:14

Old Post Mar-20-2006 02:17 
Click Here to See the Profile for TranceGrooves Click here to Send TranceGrooves a Private Message Add TranceGrooves to your buddy list Report this Post Reply w/Quote Edit/Delete Message
Nikke
Senior tranceaddict



Registered: Dec 2005
Location: Lappeenranta

Let´s see if i can id anything. Perry´s mixes have been top notch this year.

Edit: download limit exceeded. I´ll try again later...

Old Post Mar-20-2006 09:18  Finland
Click Here to See the Profile for Nikke Click here to Send Nikke a Private Message Add Nikke to your buddy list Report this Post Reply w/Quote Edit/Delete Message
00soups00
cruzin



Registered: Aug 2002
Location: Melbourne

01 - Karen Overton - Your Loving Arms (Club Mix)


TUUUNE

Old Post Mar-20-2006 11:36  Australia
Click Here to See the Profile for 00soups00 Click here to Send 00soups00 a Private Message Add 00soups00 to your buddy list Report this Post Reply w/Quote Edit/Delete Message
00soups00
cruzin



Registered: Aug 2002
Location: Melbourne

01. Karen Overton - Your Loving Arms (Club Mix) [Supra]
02. Retroid - Snowdrop (Micah's Snowglobe Ski Instructor Remix) [Feralcode]
03. Junk Science - Moodswing (Nikola Gala Remix) [Underground Lessons]
04. Group therapy - Thumbsucker [Audiotherapy]
05. Johan Vermeulen - Helix [KYR]
06. Nick Galea & Native - Good For You [Segment]
07. 2 Faced - Rock Music (Damien J Carter Remix) [Little Mountain]

Old Post Mar-20-2006 11:59  Australia
Click Here to See the Profile for 00soups00 Click here to Send 00soups00 a Private Message Add 00soups00 to your buddy list Report this Post Reply w/Quote Edit/Delete Message
TranceGrooves
TiTan Of TrAncE



Registered: May 2005
Location: EVERYWHERE

thnx fellas. you all are kings


___________________
Let's bring the change!!!

Old Post Mar-20-2006 14:14 
Click Here to See the Profile for TranceGrooves Click here to Send TranceGrooves a Private Message Add TranceGrooves to your buddy list Report this Post Reply w/Quote Edit/Delete Message
Partyhardy!
Prog Addict!



Registered: May 2001
Location: Amsterdam, Netherlands

One of the best sets I heard from Perry in a while
And why did you guys stopped at track 7? I hear 9 tracks.

01. Karen Overton - Your Loving Arms (Club Mix) [Supra]
02. Retroid - Snowdrop (Micah's Snowglobe Ski Instructor Remix) [Feralcode]
03. Junk Science - Moodswing (Nikola Gala Remix) [Underground Lessons]
04. Group therapy - Thumbsucker [Audiotherapy]
05. Johan Vermeulen - Helix [KYR]
06. Nick Galea & Native - Good For You [Segment]
07. 2 Faced - Rock Music (Damien J Carter Remix) [Little Mountain]
08. Narek & Bullo - Mady By The Hand (Rowan & Jaytech Remix)
09. ID


___________________

Sasha!

Old Post Mar-21-2006 01:17  Netherlands
Click Here to See the Profile for Partyhardy! Click here to Send Partyhardy! a Private Message Add Partyhardy! to your buddy list Report this Post Reply w/Quote Edit/Delete Message
Partyhardy!
Prog Addict!



Registered: May 2001
Location: Amsterdam, Netherlands

01. Karen Overton - Your Loving Arms (Club Mix) [Supra]
02. Retroid - Snowdrop (Micah's Snowglobe Ski Instructor Remix) [Feralcode]
03. Junk Science - Moodswing (Nikola Gala Remix) [Underground Lessons]
04. Group therapy - Thumbsucker [Audiotherapy]
05. Johan Vermeulen - Helix [KYR]
06. Nick Galea & Native - Good For You [Segment]
07. 2 Faced - Rock Music (Damien J Carter Remix) [Little Mountain]
08. Narek & Bullo - Mady By The Hand (Rowan & Jaytech Remix)
09. Brisker & Magitman - Other Dye (Perry O'Neil Remix)


___________________

Sasha!

Old Post Mar-25-2006 18:29  Netherlands
Click Here to See the Profile for Partyhardy! Click here to Send Partyhardy! a Private Message Add Partyhardy! to your buddy list Report this Post Reply w/Quote Edit/Delete Message
tijs08
a.k.a Dj Teagle



Registered: Feb 2001
Location: Rotterdam (Posse), Holland

yoo yoo onno.. You're right its a booming set. :P
I knew it when you said it was great !!!


___________________

Old Post Mar-26-2006 03:31  Netherlands
Click Here to See the Profile for tijs08 Click here to Send tijs08 a Private Message Add tijs08 to your buddy list Report this Post Reply w/Quote Edit/Delete Message
kappa82
Supreme tranceaddict



Registered: Aug 2004
Location: Gogolin, Poland

code:
PERFORMER "Perry O'Neil" TITLE "Live @ Plattenleger (03.18.2006)" FILE "---.mp3" MP3 TRACK 01 AUDIO PERFORMER "Karen Overton" TITLE "Your Loving Arms (Club Mix)" INDEX 01 00:00:00 TRACK 02 AUDIO PERFORMER "Retroid" TITLE "Snowdrop (Micah's Snowglobe Ski Instructor Remix)" INDEX 01 08:17:25 TRACK 03 AUDIO PERFORMER "Junk Science" TITLE "Moodswing (Nikola Gala Remix)" INDEX 01 14:11:65 TRACK 04 AUDIO PERFORMER "Group Therapy" TITLE "Thumbsucker" INDEX 01 22:11:45 TRACK 05 AUDIO PERFORMER "Johan Vermeulen" TITLE "Helix" INDEX 01 29:38:35 TRACK 06 AUDIO PERFORMER "Nick Galea & Native" TITLE "Good For You" INDEX 01 36:02:40 TRACK 07 AUDIO PERFORMER "2 Faced" TITLE "Rock Music (Damien J Carter Remix)" INDEX 01 42:11:50 TRACK 07 AUDIO PERFORMER "Narek & Bullo" TITLE "Mady By The Hand (Rowan & Jaytech Remix)" INDEX 01 47:07:00 TRACK 07 AUDIO PERFORMER "Brisker & Magitman" TITLE "Other Dye (Perry O'Neil Remix)" INDEX 01 54:52:20


___________________
Favorite DJ's:

M.I.K.E., Airwave, Sander Van Doorn, John '00' Fleming, Markus Schulz, Andrew Bennett, Mauro Picotto
--------------------------------------
M.I.K.E. (Push) Tracklist Archive

Old Post Apr-15-2006 22:42  Poland
Click Here to See the Profile for kappa82 Click here to Send kappa82 a Private Message Add kappa82 to your buddy list Report this Post Reply w/Quote Edit/Delete Message

TranceAddict Forums > Tracks Section > Tracklist Requests / Postings > Perry O Neil - Plattenleger 03-18-2006
Post New Thread    Post A Reply

 
Last Thread   Next Thread
Show Printable Version | Subscribe to this Thread

Forum Jump:

All times are GMT. The time now is 19:04.

Forum Rules:
You may not post new threads
You may not post replies
You may not edit your posts
HTML code is ON
vB code is ON
[IMG] code is ON
 
Search this Thread:

 
Contact Us - return to tranceaddict

Powered by: Trance Music & vBulletin Forums
Copyright ©2000-2019

Privacy Statement / DMCA